查看: 8078|回復: 177
打印 上一主題 下一主題

[劇情片] 寄生蟲 Parasite.2019.KOREAN.1080p.BluRay.x264.TrueHD.7.1.Atmos-FGT 15.00GB

  [復制鏈接]

 成長值: 4140

級別:資源管理組

注冊時間
2017-10-20
最后登錄
2020-2-21
聽眾
1
收聽
0
主題
92621
藍光幣
101356 枚
貢獻
16983 點
跳轉到指定樓層
樓主
發表于 2019-11-30 15:42:05 | 只看該作者 |只看大圖 回帖獎勵 |倒序瀏覽 |閱讀模式


譯  名 寄生蟲 / Gisaengchung / Parasite / 上流寄生族(港) / 寄生上流(臺) / ?????
片  名 ???
年  代 2019
產  地 韓國
類  別 劇情
語  言 韓語
上映日期 2019-05-21(戛納電影節) / 2019-05-30(韓國)
IMDb評分  8.6/10 from 10105 users
IMDb鏈接  http://www.imdb.com/title/tt6751668
豆瓣評分 8.9/10 from 177472 users
豆瓣鏈接 https://movie.douban.com/subject/27010768/
片  長 132分鐘
導  演 奉俊昊 Joon-ho Bong
編  劇 奉俊昊 Joon-ho Bong
主  演 宋康昊 Kang-ho Song
       李善均 Seon-gyun Lee
       趙汝貞 Yeo-Jeong Jo
       崔宇植 Woo-Sik Choi
       樸素丹 Su-dam Park


標  簽 韓國 | 人性 | 劇情 | 社會 | 2019 | 黑色幽默 | 戛納 | 金棕櫚

簡  介  

  《寄生蟲》講述了發生在身份地位懸殊的兩個家庭身上的故事:宋康昊飾演的無業游民父親基澤,讓寄托了家人生計希望的大兒子(崔宇植 飾)前往IT公司老總樸社長(李善均 飾)家應聘課外教師,隨之發生了一連串意外事件。

獲獎情況  

  第72屆戛納電影節(2019)
  主競賽單元 金棕櫚獎 奉俊昊
  1. Video
  2. ID                                       : 1
  3. Format                                   : AVC
  4. Format/Info                              : Advanced Video Codec
  5. Format profile                           : [email protected]
  6. Format settings                          : CABAC / 4 Ref Frames
  7. Format settings, CABAC                   : Yes
  8. Format settings, Reference frames        : 4 frames
  9. Codec ID                                 : V_MPEG4/ISO/AVC
  10. Duration                                 : 2 h 12 min
  11. Bit rate                                 : 11.5 Mb/s
  12. Width                                    : 1 920 pixels
  13. Height                                   : 804 pixels
  14. Display aspect ratio                     : 2.40:1
  15. Frame rate mode                          : Constant
  16. Frame rate                               : 23.976 (24000/1001) FPS
  17. Color space                              : YUV
  18. Chroma subsampling                       : 4:2:0
  19. Bit depth                                : 8 bits
  20. Scan type                                : Progressive
  21. Bits/(Pixel*Frame)                       : 0.311
  22. Stream size                              : 10.6 GiB (71%)
  23. Title                                    : Parasite.2019.KOREAN.1080p.BluRay.x264.TrueHD.7.1.Atmos-FGT
  24. Writing library                          : x264 core 148 r2748 97eaef2
  25. Encoding settings                        : cabac=1 / ref=4 / deblock=1:-2:-2 / analyse=0x3:0x113 / me=umh / subme=9 / psy=1 / psy_rd=1.00:0.15 / mixed_ref=1 / me_range=16 / chroma_me=1 / trellis=2 / 8x8dct=1 / cqm=0 / deadzone=21,11 / fast_pskip=1 / chroma_qp_offset=-3 / threads=72 / lookahead_threads=3 / sliced_threads=0 / nr=0 / decimate=1 / interlaced=0 / bluray_compat=0 / constrained_intra=0 / bframes=3 / b_pyramid=2 / b_adapt=1 / b_bias=0 / direct=3 / weightb=1 / open_gop=0 / weightp=2 / keyint=250 / keyint_min=25 / scenecut=40 / intra_refresh=0 / rc_lookahead=50 / rc=2pass / mbtree=1 / bitrate=11500 / ratetol=1.0 / qcomp=0.60 / qpmin=0 / qpmax=69 / qpstep=4 / cplxblur=20.0 / qblur=0.5 / vbv_maxrate=31250 / vbv_bufsize=31250 / nal_hrd=none / filler=0 / ip_ratio=1.40 / aq=1:1.00
  26. Language                                 : Korean
  27. Default                                  : Yes
  28. Forced                                   : No

  29. Audio #1
  30. ID                                       : 2
  31. Format                                   : MLP FBA 16-ch
  32. Format/Info                              : Meridian Lossless Packing FBA with 16-channel presentation
  33. Commercial name                          : Dolby TrueHD with Dolby Atmos
  34. Codec ID                                 : A_TRUEHD
  35. Duration                                 : 2 h 12 min
  36. Bit rate mode                            : Variable
  37. Bit rate                                 : 4 042 kb/s
  38. Maximum bit rate                         : 6 816 kb/s
  39. Channel(s)                               : 8 channels
  40. Channel layout                           : L R C LFE Ls Rs Lb Rb
  41. Sampling rate                            : 48.0 kHz
  42. Frame rate                               : 1 200.000 FPS (40 SPF)
  43. Compression mode                         : Lossless
  44. Stream size                              : 3.73 GiB (25%)
  45. Title                                    : Parasite.2019.KOREAN.1080p.BluRay.x264.TrueHD.7.1.Atmos-FGT
  46. Language                                 : Korean
  47. Default                                  : Yes
  48. Forced                                   : No
  49. Number of dynamic objects                : 11
  50. Bed channel count                        : 1 channel
  51. Bed channel configuration                : LFE

  52. Audio #2
  53. ID                                       : 3
  54. Format                                   : AC-3
  55. Format/Info                              : Audio Coding 3
  56. Commercial name                          : Dolby Digital
  57. Codec ID                                 : A_AC3
  58. Duration                                 : 2 h 12 min
  59. Bit rate mode                            : Constant
  60. Bit rate                                 : 640 kb/s
  61. Channel(s)                               : 6 channels
  62. Channel layout                           : L R C LFE Ls Rs
  63. Sampling rate                            : 48.0 kHz
  64. Frame rate                               : 31.250 FPS (1536 SPF)
  65. Bit depth                                : 16 bits
  66. Compression mode                         : Lossy
  67. Stream size                              : 604 MiB (4%)
  68. Title                                    : Parasite.2019.KOREAN.1080p.BluRay.x264.TrueHD.7.1.Atmos-FGT
  69. Language                                 : Korean
  70. Service kind                             : Complete Main
  71. Default                                  : No
  72. Forced                                   : No

  73. Text #1
  74. ID                                       : 4
  75. Format                                   : UTF-8
  76. Codec ID                                 : S_TEXT/UTF8
  77. Codec ID/Info                            : UTF-8 Plain Text
  78. Duration                                 : 2 h 5 min
  79. Bit rate                                 : 53 b/s
  80. Count of elements                        : 1647
  81. Stream size                              : 49.3 KiB (0%)
  82. Title                                    : English-SRT
  83. Language                                 : English
  84. Default                                  : Yes
  85. Forced                                   : No

  86. Text #2
  87. ID                                       : 5
  88. Format                                   : PGS
  89. Muxing mode                              : zlib
  90. Codec ID                                 : S_HDMV/PGS
  91. Codec ID/Info                            : Picture based subtitle format used on BDs/HD-DVDs
  92. Duration                                 : 2 h 10 min
  93. Bit rate                                 : 26.8 kb/s
  94. Count of elements                        : 3548
  95. Stream size                              : 25.0 MiB (0%)
  96. Language                                 : French
  97. Default                                  : No
  98. Forced                                   : No

  99. Text #3
  100. ID                                       : 6
  101. Format                                   : PGS
  102. Muxing mode                              : zlib
  103. Codec ID                                 : S_HDMV/PGS
  104. Codec ID/Info                            : Picture based subtitle format used on BDs/HD-DVDs
  105. Duration                                 : 2 h 11 min
  106. Bit rate                                 : 37.1 kb/s
  107. Count of elements                        : 5100
  108. Stream size                              : 34.9 MiB (0%)
  109. Title                                    : SDH
  110. Language                                 : French
  111. Default                                  : No
  112. Forced                                   : No

  113. Menu
  114. 00:00:00.000                             : en:Chapter 1
  115. 00:05:44.802                             : en:Chapter 2
  116. 00:12:16.610                             : en:Chapter 3
  117. 00:20:35.484                             : en:Chapter 4
  118. 00:29:21.926                             : en:Chapter 5
  119. 00:37:05.348                             : en:Chapter 6
  120. 00:46:19.943                             : en:Chapter 7
  121. 00:53:52.979                             : en:Chapter 8
  122. 01:02:55.646                             : en:Chapter 9
  123. 01:12:10.242                             : en:Chapter 10
  124. 01:23:25.834                             : en:Chapter 11
  125. 01:32:19.659                             : en:Chapter 12
  126. 01:41:22.284                             : en:Chapter 13
  127. 01:48:21.912                             : en:Chapter 14
  128. 01:56:07.502                             : en:Chapter 15
  129. 02:07:06.744                             : en:Chapter 16
復制代碼









本帖隱藏的下載地址需要VIP會員才可瀏覽,您需要升級才可瀏覽,點擊這里升級VIP
分享到:  QQ好友和群QQ好友和群
收藏收藏
VIP會員免費任意下載本站所有資源!---點擊開通
回復

使用道具 舉報

級別:普通觀眾 Lv.2

注冊時間
2019-1-21
最后登錄
2020-2-20
聽眾
8
收聽
0
主題
0
藍光幣
51 枚
貢獻
0 點
沙發
發表于 2019-11-30 17:12:11 | 只看該作者

樓主太厲害了!樓主,電影應該很好看我覺得中國高清電影網真是個好地方!
VIP會員免費任意下載本站所有資源!---點擊開通
回復

使用道具 舉報

級別:群眾演員 Lv.3

注冊時間
2019-11-29
最后登錄
2020-2-21
聽眾
1
收聽
0
主題
0
藍光幣
9 枚
貢獻
0 點
板凳
發表于 2019-11-30 18:13:33 | 只看該作者
樓主發貼辛苦了,謝謝樓主分享!我覺得中國高清電影網是注冊對了!
VIP會員免費任意下載本站所有資源!---點擊開通
回復

使用道具 舉報

級別:初級觀眾 Lv.1

注冊時間
2019-4-20
最后登錄
2020-2-15
聽眾
8
收聽
0
主題
0
藍光幣
0 枚
貢獻
0 點
地板
發表于 2019-11-30 20:13:40 | 只看該作者
網上資源有很多  為什么咱這要VIP
VIP會員免費任意下載本站所有資源!---點擊開通
回復

使用道具 舉報

 成長值: 1375

級別:尊貴的會員

注冊時間
2019-11-26
最后登錄
2020-2-21
聽眾
1
收聽
0
主題
0
藍光幣
203 枚
貢獻
0 點
5#
發表于 2019-12-1 08:35:13 | 只看該作者
樓主發貼辛苦了,謝謝樓主分享!我覺得中國高清電影網是注冊對了!
VIP會員免費任意下載本站所有資源!---點擊開通
回復

使用道具 舉報

級別:群眾演員 Lv.3

注冊時間
2019-12-1
最后登錄
2020-2-20
聽眾
1
收聽
0
主題
0
藍光幣
88 枚
貢獻
0 點
6#
發表于 2019-12-1 10:14:58 | 只看該作者

既然你誠信誠意的推薦了,那我就勉為其難的看看吧!中國高清電影網不走平凡路。
VIP會員免費任意下載本站所有資源!---點擊開通
回復

使用道具 舉報

級別:群眾演員 Lv.3

注冊時間
2019-12-1
最后登錄
2020-2-20
聽眾
1
收聽
0
主題
0
藍光幣
88 枚
貢獻
0 點
7#
發表于 2019-12-1 10:18:05 | 只看該作者

論壇不能沒有像樓主這樣的人才??!我會一直支持中國高清電影網。
VIP會員免費任意下載本站所有資源!---點擊開通
回復

使用道具 舉報

級別:初級觀眾 Lv.1

注冊時間
2019-11-29
最后登錄
2019-12-28
聽眾
1
收聽
0
主題
0
藍光幣
6 枚
貢獻
0 點
QQ
8#
發表于 2019-12-1 10:23:43 | 只看該作者

我看不錯噢 謝謝樓主!中國高清電影網越來越好!
VIP會員免費任意下載本站所有資源!---點擊開通
回復

使用道具 舉報

級別:群眾演員 Lv.3

注冊時間
2019-11-29
最后登錄
2020-2-21
聽眾
1
收聽
0
主題
0
藍光幣
118 枚
貢獻
0 點
9#
發表于 2019-12-1 13:36:04 | 只看該作者

既然你誠信誠意的推薦了,那我就勉為其難的看看吧!中國高清電影網不走平凡路。
VIP會員免費任意下載本站所有資源!---點擊開通
回復

使用道具 舉報

 成長值: 1285

級別:尊貴的會員

注冊時間
2019-11-25
最后登錄
2020-2-21
聽眾
1
收聽
0
主題
0
藍光幣
69 枚
貢獻
0 點
QQ
10#
發表于 2019-12-1 18:33:06 | 只看該作者

這個帖子不回對不起自己!我想我是一天也不能離開中國高清電影網。
VIP會員免費任意下載本站所有資源!---點擊開通
回復

使用道具 舉報

懶得打字嘛,點擊右側快捷回復 【右側內容,后臺自定義】
您需要登錄后才可以回帖 登錄 | 立即注冊

本版積分規則

Archiver|手機版|小黑屋| 中國高清網 |網站地圖

GMT+8, 2020-2-21 23:20 , Processed in 0.231680 second(s), 38 queries .

Powered by HDchina X3.4

Copyright 2017-2019©HDchina.All right reserved

返回頂部 聯系我們
足球竞彩网