查看: 1330|回復: 29
打印 上一主題 下一主題

[8bit.SDR] 第一滴血5:最后的血 Rambo.Last.Blood.2019.2160p.BluRay.x264.8bit.SDR.DTS-HD.MA.TrueHD.7.1.Atmos-SWTYBLZ 24.14GB

[復制鏈接]

 成長值: 4140

級別:資源管理組

注冊時間
2017-10-20
最后登錄
2020-2-21
聽眾
1
收聽
0
主題
92539
藍光幣
100850 枚
貢獻
16901 點
跳轉到指定樓層
樓主
發表于 2019-12-11 00:06:38 | 只看該作者 |只看大圖 回帖獎勵 |倒序瀏覽 |閱讀模式


譯  名 第一滴血5:最后的血 / Rambo 5 / Rambo 5: Last Blood / Rambo V / Rambo V: Last Blood / 蘭博5:最后一滴血 / 第一滴血5 / 第一滴血:最后一戰 / 第一滴血:終極血戰(港) / 藍波:最后一滴血(臺)
片  名 Rambo: Last Blood
年  代 2019
產  地 美國
類  別 動作 / 驚悚 / 冒險
語  言 英語
上映日期 2019-09-20(美國)
IMDb評分  6.7/10 from 23992 users
IMDb鏈接  https://www.imdb.com/title/tt1206885
豆瓣評分 7.6/10 from 1217 users
豆瓣鏈接 https://movie.douban.com/subject/10546436/
片  長 89分鐘
導  演 阿德里安·格魯伯格 Adrian Grunberg
編  劇 馬修·西魯尼克 Matthew Cirulnick / 大衛·莫瑞爾 David Morrell / 西爾維斯特·史泰龍 Sylvester Stallone
主  演 西爾維斯特·史泰龍 Sylvester Stallone
       帕斯·貝加 Paz Vega
       路易·曼迪勒 Louis Mandylor
       奧斯卡·賈恩那達 óscar Jaenada
       維特·蒙雷爾 Yvette Monreal
       華金·科西奧 Joaquín Cosio
       杰西卡·馬德森 Jessica Madsen
       艾德里安娜·巴拉扎 Adriana Barraza
       塞爾吉奧·佩里斯-門切塔 Sergio Peris-Mencheta
       阿塔納斯·斯雷布雷夫 Atanas Srebrev
       尼克·威特曼 Nick Wittman


標  簽 動作 | 硬漢 | 美國 | 經典 | 暴力 | 戰爭 | 血腥 | 2019

簡  介  

  西爾維斯特·史泰龍回歸[第一滴血5],并有望執導。除主演外,據悉史泰龍將操刀劇本,故事圍繞蘭博為營救朋友之女與墨西哥毒梟展開殊死搏斗展開。制片艾威·勒納([敢死隊]系列)。該系列首部于1982年上映,2008年史泰龍曾自導自演[第一滴血4]。[第一滴血5]將在本屆戛納電影節預售,9月開拍。
  1. Video
  2. ID                                       : 1
  3. Format                                   : AVC
  4. Format/Info                              : Advanced Video Codec
  5. Format profile                           : [email protected]
  6. Format settings                          : CABAC / 5 Ref Frames
  7. Format settings, CABAC                   : Yes
  8. Format settings, Reference frames        : 5 frames
  9. Codec ID                                 : V_MPEG4/ISO/AVC
  10. Duration                                 : 1 h 29 min
  11. Bit rate                                 : 30.9 Mb/s
  12. Width                                    : 3 840 pixels
  13. Height                                   : 1 610 pixels
  14. Display aspect ratio                     : 2.40:1
  15. Frame rate mode                          : Constant
  16. Frame rate                               : 23.976 (24000/1001) FPS
  17. Color space                              : YUV
  18. Chroma subsampling                       : 4:2:0
  19. Bit depth                                : 8 bits
  20. Scan type                                : Progressive
  21. Bits/(Pixel*Frame)                       : 0.208
  22. Stream size                              : 19.3 GiB (81%)
  23. Title                                    : Rambo.Last.Blood.2019.2160p.BluRay.x264.8bit.SDR.DTS-HD.MA.TrueHD.7.1.Atmos-SWTYBLZ
  24. Writing library                          : x264 core 157 r2935 545de2f
  25. Encoding settings                        : cabac=1 / ref=5 / deblock=1:-1:-1 / analyse=0x3:0x113 / me=umh / subme=10 / psy=1 / psy_rd=1.00:0.15 / mixed_ref=1 / me_range=48 / chroma_me=1 / trellis=2 / 8x8dct=1 / cqm=0 / deadzone=21,11 / fast_pskip=1 / chroma_qp_offset=-3 / threads=48 / lookahead_threads=4 / sliced_threads=0 / nr=0 / decimate=0 / interlaced=0 / bluray_compat=0 / constrained_intra=0 / bframes=3 / b_pyramid=2 / b_adapt=2 / b_bias=0 / direct=3 / weightb=1 / open_gop=0 / weightp=2 / keyint=250 / keyint_min=23 / scenecut=40 / intra_refresh=0 / rc_lookahead=50 / rc=crf / mbtree=1 / crf=18.0 / qcomp=0.60 / qpmin=0 / qpmax=69 / qpstep=4 / ip_ratio=1.40 / aq=1:1.00
  26. Default                                  : Yes
  27. Forced                                   : No

  28. Audio #1
  29. ID                                       : 2
  30. Format                                   : MLP FBA 16-ch
  31. Format/Info                              : Meridian Lossless Packing FBA with 16-channel presentation
  32. Commercial name                          : Dolby TrueHD with Dolby Atmos
  33. Codec ID                                 : A_TRUEHD
  34. Duration                                 : 1 h 29 min
  35. Bit rate mode                            : Variable
  36. Bit rate                                 : 3 100 kb/s
  37. Maximum bit rate                         : 4 866 kb/s
  38. Channel(s)                               : 8 channels
  39. Channel layout                           : L R C LFE Ls Rs Lb Rb
  40. Sampling rate                            : 48.0 kHz
  41. Frame rate                               : 1 200.000 FPS (40 SPF)
  42. Compression mode                         : Lossless
  43. Stream size                              : 1.94 GiB (8%)
  44. Title                                    : Rambo.Last.Blood.2019.2160p.BluRay.x264.8bit.SDR.DTS-HD.MA.TrueHD.7.1.Atmos-SWTYBLZ
  45. Language                                 : English
  46. Default                                  : Yes
  47. Forced                                   : No
  48. Number of dynamic objects                : 11
  49. Bed channel count                        : 1 channel
  50. Bed channel configuration                : LFE

  51. Audio #2
  52. ID                                       : 3
  53. Format                                   : DTS XLL
  54. Format/Info                              : Digital Theater Systems
  55. Commercial name                          : DTS-HD Master Audio
  56. Codec ID                                 : A_DTS
  57. Duration                                 : 1 h 29 min
  58. Bit rate mode                            : Variable
  59. Bit rate                                 : 3 591 kb/s
  60. Channel(s)                               : 8 channels
  61. Channel layout                           : C L R LFE Lb Rb Lss Rss
  62. Sampling rate                            : 48.0 kHz
  63. Frame rate                               : 93.750 FPS (512 SPF)
  64. Bit depth                                : 24 bits
  65. Compression mode                         : Lossless
  66. Stream size                              : 2.24 GiB (9%)
  67. Title                                    : Rambo.Last.Blood.2019.2160p.BluRay.x264.8bit.SDR.DTS-HD.MA.TrueHD.7.1.Atmos-SWTYBLZ
  68. Language                                 : English
  69. Default                                  : No
  70. Forced                                   : No

  71. Audio #3
  72. ID                                       : 4
  73. Format                                   : AC-3
  74. Format/Info                              : Audio Coding 3
  75. Commercial name                          : Dolby Digital
  76. Codec ID                                 : A_AC3
  77. Duration                                 : 1 h 29 min
  78. Bit rate mode                            : Constant
  79. Bit rate                                 : 640 kb/s
  80. Channel(s)                               : 6 channels
  81. Channel layout                           : L R C LFE Ls Rs
  82. Sampling rate                            : 48.0 kHz
  83. Frame rate                               : 31.250 FPS (1536 SPF)
  84. Bit depth                                : 16 bits
  85. Compression mode                         : Lossy
  86. Stream size                              : 410 MiB (2%)
  87. Title                                    : Rambo.Last.Blood.2019.2160p.BluRay.x264.8bit.SDR.DTS-HD.MA.TrueHD.7.1.Atmos-SWTYBLZ
  88. Language                                 : English
  89. Service kind                             : Complete Main
  90. Default                                  : No
  91. Forced                                   : No

  92. Text #1
  93. ID                                       : 5
  94. Format                                   : UTF-8
  95. Codec ID                                 : S_TEXT/UTF8
  96. Codec ID/Info                            : UTF-8 Plain Text
  97. Duration                                 : 1 h 17 min
  98. Bit rate                                 : 26 b/s
  99. Count of elements                        : 563
  100. Stream size                              : 15.3 KiB (0%)
  101. Title                                    : English-SRT
  102. Language                                 : English
  103. Default                                  : Yes
  104. Forced                                   : No

  105. Text #2
  106. ID                                       : 6
  107. Format                                   : UTF-8
  108. Codec ID                                 : S_TEXT/UTF8
  109. Codec ID/Info                            : UTF-8 Plain Text
  110. Duration                                 : 1 h 18 min
  111. Bit rate                                 : 37 b/s
  112. Count of elements                        : 834
  113. Stream size                              : 21.2 KiB (0%)
  114. Title                                    : English-SDH-SRT
  115. Language                                 : English
  116. Default                                  : No
  117. Forced                                   : No

  118. Text #3
  119. ID                                       : 7
  120. Format                                   : PGS
  121. Muxing mode                              : zlib
  122. Codec ID                                 : S_HDMV/PGS
  123. Codec ID/Info                            : Picture based subtitle format used on BDs/HD-DVDs
  124. Duration                                 : 1 h 18 min
  125. Bit rate                                 : 26.9 kb/s
  126. Count of elements                        : 1680
  127. Stream size                              : 15.0 MiB (0%)
  128. Title                                    : English-PGS
  129. Language                                 : English
  130. Default                                  : No
  131. Forced                                   : No

  132. Text #4
  133. ID                                       : 8
  134. Format                                   : PGS
  135. Muxing mode                              : zlib
  136. Codec ID                                 : S_HDMV/PGS
  137. Codec ID/Info                            : Picture based subtitle format used on BDs/HD-DVDs
  138. Duration                                 : 1 h 20 min
  139. Bit rate                                 : 15.8 kb/s
  140. Count of elements                        : 1096
  141. Stream size                              : 9.12 MiB (0%)
  142. Title                                    : Spanish-PGS
  143. Language                                 : Spanish
  144. Default                                  : No
  145. Forced                                   : No

  146. Text #5
  147. ID                                       : 9
  148. Format                                   : PGS
  149. Muxing mode                              : zlib
  150. Codec ID                                 : S_HDMV/PGS
  151. Codec ID/Info                            : Picture based subtitle format used on BDs/HD-DVDs
  152. Duration                                 : 1 h 17 min
  153. Bit rate                                 : 26.9 kb/s
  154. Count of elements                        : 1414
  155. Stream size                              : 14.9 MiB (0%)
  156. Title                                    : French-PGS
  157. Language                                 : French
  158. Default                                  : No
  159. Forced                                   : No

  160. Menu
  161. 00:00:00.000                             : en:Chapter 01
  162. 00:04:50.081                             : en:Chapter 02
  163. 00:10:59.158                             : en:Chapter 03
  164. 00:14:35.416                             : en:Chapter 04
  165. 00:22:38.732                             : en:Chapter 05
  166. 00:25:11.384                             : en:Chapter 06
  167. 00:31:24.382                             : en:Chapter 07
  168. 00:36:11.961                             : en:Chapter 08
  169. 00:41:08.132                             : en:Chapter 09
  170. 00:46:37.878                             : en:Chapter 10
  171. 00:49:30.092                             : en:Chapter 11
  172. 00:55:04.926                             : en:Chapter 12
  173. 01:00:08.229                             : en:Chapter 13
  174. 01:05:57.495                             : en:Chapter 14
  175. 01:12:06.155                             : en:Chapter 15
  176. 01:17:47.245                             : en:Chapter 16
復制代碼









本帖隱藏的下載地址需要VIP會員才可瀏覽,您需要升級才可瀏覽,點擊這里升級VIP
分享到:  QQ好友和群QQ好友和群
收藏收藏
VIP會員免費任意下載本站所有資源!---點擊開通
回復

使用道具 舉報

級別:初級觀眾 Lv.1

注冊時間
2019-12-11
最后登錄
2019-12-11
聽眾
1
收聽
0
主題
0
藍光幣
0 枚
貢獻
0 點
沙發
發表于 2019-12-11 09:22:27 | 只看該作者
竟然 出到了5了,還沒看過
VIP會員免費任意下載本站所有資源!---點擊開通
回復

使用道具 舉報

級別:群眾演員 Lv.3

注冊時間
2019-10-30
最后登錄
2020-2-21
聽眾
1
收聽
0
主題
0
藍光幣
206 枚
貢獻
0 點
QQ
板凳
發表于 2019-12-11 15:50:47 | 只看該作者

感謝樓主的無私分享!要想中國高清電影網好 就靠你我他
VIP會員免費任意下載本站所有資源!---點擊開通
回復

使用道具 舉報

級別:普通觀眾 Lv.2

注冊時間
2019-1-17
最后登錄
2020-2-18
聽眾
9
收聽
0
主題
0
藍光幣
14 枚
貢獻
0 點
地板
發表于 2019-12-11 18:37:31 | 只看該作者
樓主發貼辛苦了,謝謝樓主分享!我覺得中國高清電影網是注冊對了!
VIP會員免費任意下載本站所有資源!---點擊開通
回復

使用道具 舉報

級別:初級觀眾 Lv.1

注冊時間
2019-12-16
最后登錄
2019-12-16
聽眾
1
收聽
0
主題
0
藍光幣
0 枚
貢獻
0 點
5#
發表于 2019-12-16 16:11:00 | 只看該作者
謝謝分享
VIP會員免費任意下載本站所有資源!---點擊開通
回復

使用道具 舉報

級別:普通觀眾 Lv.2

注冊時間
2019-5-31
最后登錄
2020-1-21
聽眾
8
收聽
0
主題
0
藍光幣
40 枚
貢獻
0 點
6#
發表于 2019-12-18 08:40:51 | 只看該作者
樓主發貼辛苦了,謝謝樓主分享!我覺得中國高清電影網是注冊對了!
VIP會員免費任意下載本站所有資源!---點擊開通
回復

使用道具 舉報

級別:初級觀眾 Lv.1

注冊時間
2019-12-18
最后登錄
2019-12-18
聽眾
1
收聽
0
主題
0
藍光幣
3 枚
貢獻
0 點
7#
發表于 2019-12-18 09:18:31 | 只看該作者
樓主發貼辛苦了,謝謝樓主分享!我覺得中國高清電影網是注冊對了!
VIP會員免費任意下載本站所有資源!---點擊開通
回復

使用道具 舉報

級別:初級觀眾 Lv.1

注冊時間
2019-12-18
最后登錄
2020-1-8
聽眾
1
收聽
0
主題
0
藍光幣
0 枚
貢獻
0 點
QQ
8#
發表于 2019-12-18 09:26:58 | 只看該作者

論壇不能沒有像樓主這樣的人才??!我會一直支持中國高清電影網。
VIP會員免費任意下載本站所有資源!---點擊開通
回復

使用道具 舉報

級別:一線明星 Lv.8

注冊時間
2019-4-24
最后登錄
2020-2-20
聽眾
14
收聽
0
主題
0
藍光幣
329 枚
貢獻
0 點
9#
發表于 2019-12-18 16:54:03 | 只看該作者
樓主發貼辛苦了,謝謝樓主分享!我覺得中國高清電影網是注冊對了!
VIP會員免費任意下載本站所有資源!---點擊開通
回復

使用道具 舉報

級別:專業龍套 Lv.4

注冊時間
2019-11-29
最后登錄
2020-2-20
聽眾
1
收聽
0
主題
1
藍光幣
215 枚
貢獻
1 點
10#
發表于 2019-12-20 08:44:03 | 只看該作者
阿德里安·格魯伯格  good
VIP會員免費任意下載本站所有資源!---點擊開通
回復

使用道具 舉報

懶得打字嘛,點擊右側快捷回復 【右側內容,后臺自定義】
您需要登錄后才可以回帖 登錄 | 立即注冊

本版積分規則

Archiver|手機版|小黑屋| 中國高清網 |網站地圖

GMT+8, 2020-2-21 07:19 , Processed in 0.181429 second(s), 37 queries .

Powered by HDchina X3.4

Copyright 2017-2019©HDchina.All right reserved

返回頂部 聯系我們
足球竞彩网