查看: 1123|回復: 16
打印 上一主題 下一主題

[10bit.HDR] 世界盡頭/世界終極 The.Worlds.End.2013.2160p.UHD.BluRay.X265.10bit.HDR10Plus.DTS-X.7.1-JustWatch 27.68GB

[復制鏈接]

 成長值: 4140

級別:資源管理組

注冊時間
2017-10-20
最后登錄
2020-2-21
聽眾
1
收聽
0
主題
92539
藍光幣
100878 枚
貢獻
16901 點
跳轉到指定樓層
樓主
發表于 2020-1-1 14:13:01 | 只看該作者 |只看大圖 回帖獎勵 |倒序瀏覽 |閱讀模式


譯  名 世界盡頭 / 世界終極 / 世界終點 / 世芥末日(臺) / 醉后末日(臺) / 醉爆末日黨(港)
片  名 The World's End
年  代 2013
產  地 英國
類  別 喜劇 / 動作 / 科幻
語  言 英語
上映日期 2013-07-19(英國)
IMDb評分  7.0/10 from 239493 users
IMDb鏈接  http://www.imdb.com/title/tt1213663
豆瓣評分 7.4/10 from 44172 users
豆瓣鏈接 https://movie.douban.com/subject/3026572/
片  長 109分鐘
導  演 埃德加·賴特 Edgar Wright
編  劇 西蒙·佩吉 Simon Pegg / 埃德加·賴特 Edgar Wright
主  演 西蒙·佩吉 Simon Pegg
       尼克·弗羅斯特 Nick Frost
       帕迪·康斯戴恩 Paddy Considine
       馬丁·弗瑞曼 Martin Freeman
       埃迪·馬森 Eddie Marsan
       羅莎蒙德·派克 Rosamund Pike
       托馬斯·洛 Thomas Law
       Zachary Bailess
       Jasper Levine
       James Tarpey
       Luke Bromley
       Sophie Evans
       Samantha White
       Rose Reynolds
       Richard Hadfield
       Flora Slorach
       Francesca Reidie
       Charlotte Reidie
       大衛·布拉德利 David Bradley
       邁克爾·史麥利 Michael Smiley
       皮爾斯·布魯斯南 Pierce Brosnan


標  簽 英國 | 喜劇 | 科幻 | SimonPegg | 英國電影 | 2013 | 黑色幽默 | EdgarWright

簡  介  

  過度沉湎酒精、年屆不惑的蓋瑞·金(西蒙·佩吉 Simon Pegg 飾),突然間想起20年前青春時代一件引以為豪但未竟的浪蕩事,于是相繼找來如今已經有了各自家庭和事業的好伙伴奧利弗·張伯倫(馬丁·弗瑞曼 Martin Freeman 飾)、彼得·佩吉(埃迪·馬森 Eddie Marsan 飾)、史蒂文·普林斯(帕迪·康斯戴恩 Paddy Considine 飾)和安迪·奈特利(尼克·弗羅斯特 Nick Frost 飾)。他們相約返回故鄉紐頓哈芬,試圖再次找回通宵5人、12間酒吧、60杯啤酒的快樂時光。小鎮一如既往,幾乎沒有什么變化,但是鎮上的人似乎全然不記得這幾個老男孩。
  在蓋瑞的引領下,起初一切還比較正常,可當夜幕降臨之后,詭異事件交替上演,蓋瑞等人發現,他們仿佛不知不覺步入某種超自然的圈套之中……

獲獎情況  

  第19屆美國評論家選擇電影獎(2014)
  最佳喜劇片(提名)
  喜劇片最佳男主角(提名) 西蒙·佩吉

  第4屆豆瓣電影鑫像獎(2014)
  鑫豆單元 最佳喜劇片(提名)
  1. Video
  2. ID                                       : 1
  3. Format                                   : HEVC
  4. Format/Info                              : High Efficiency Video Coding
  5. Format profile                           : Main [email protected]@High
  6. HDR format                               : SMPTE ST 2094 App 4, Version 1, HDR10+ Profile B compatible
  7. Codec ID                                 : V_MPEGH/ISO/HEVC
  8. Duration                                 : 1 h 49 min
  9. Bit rate                                 : 29.0 Mb/s
  10. Width                                    : 3 840 pixels
  11. Height                                   : 2 160 pixels
  12. Display aspect ratio                     : 16:9
  13. Frame rate mode                          : Constant
  14. Frame rate                               : 23.976 (24000/1001) FPS
  15. Color space                              : YUV
  16. Chroma subsampling                       : 4:2:0 (Type 2)
  17. Bit depth                                : 10 bits
  18. Bits/(Pixel*Frame)                       : 0.146
  19. Stream size                              : 22.1 GiB (80%)
  20. Writing library                          : x265 3.19c5c9cef2a86:[Windows][MSVC 1900][64 bit] 10bit
  21. Encoding settings                        : cpuid=1111039 / frame-threads=6 / numa-pools=16,16 / wpp / no-pmode / no-pme / no-psnr / no-ssim / log-level=2 / input-csp=1 / input-res=3840x2160 / interlace=0 / total-frames=156892 / level-idc=51 / high-tier=1 / uhd-bd=0 / ref=4 / no-allow-non-conformance / repeat-headers / annexb / aud / hrd / info / hash=0 / no-temporal-layers / no-open-gop / min-keyint=24 / keyint=240 / gop-lookahead=0 / bframes=4 / b-adapt=2 / b-pyramid / bframe-bias=0 / rc-lookahead=25 / lookahead-slices=4 / scenecut=40 / radl=0 / no-splice / no-intra-refresh / ctu=64 / min-cu-size=8 / rect / no-amp / max-tu-size=32 / tu-inter-depth=1 / tu-intra-depth=1 / limit-tu=0 / rdoq-level=2 / dynamic-rd=0.00 / no-ssim-rd / signhide / no-tskip / nr-intra=0 / nr-inter=0 / no-constrained-intra / no-strong-intra-smoothing / max-merge=3 / limit-refs=3 / limit-modes / me=3 / subme=3 / merange=57 / temporal-mvp / weightp / no-weightb / no-analyze-src-pics / deblock=-3:-3 / no-sao / no-sao-non-deblock / rd=4 / no-early-skip / rskip / no-fast-intra / no-tskip-fast / no-cu-lossless / no-b-intra / no-splitrd-skip / rdpenalty=0 / psy-rd=2.00 / psy-rdoq=1.00 / no-rd-refine / no-lossless / cbqpoffs=0 / crqpoffs=0 / rc=crf / crf=15.5 / qcomp=0.60 / qpstep=4 / stats-write=0 / stats-read=0 / vbv-maxrate=160000 / vbv-bufsize=160000 / vbv-init=0.9 / crf-max=0.0 / crf-min=0.0 / ipratio=1.40 / pbratio=1.30 / aq-mode=2 / aq-strength=1.00 / cutree / zone-count=0 / no-strict-cbr / qg-size=32 / no-rc-grain / qpmax=69 / qpmin=0 / no-const-vbv / sar=1 / overscan=0 / videoformat=5 / range=0 / colorprim=9 / transfer=16 / colormatrix=9 / chromaloc=1 / chromaloc-top=2 / chromaloc-bottom=2 / display-window=0 / master-display=G(13250,34500)B(7500,3000)R(34000,16000)WP(15635,16450)L(10000000,50)cll=1000,184 / min-luma=0 / max-luma=1023 / log2-max-poc-lsb=8 / vui-timing-info / vui-hrd-info / slices=1 / no-opt-qp-pps / no-opt-ref-list-length-pps / no-multi-pass-opt-rps / scenecut-bias=0.05 / no-opt-cu-delta-qp / no-aq-motion / hdr / hdr-opt / dhdr10-opt / no-idr-recovery-sei / analysis-reuse-level=5 / scale-factor=0 / refine-intra=0 / refine-inter=0 / refine-mv=0 / refine-ctu-distortion=0 / no-limit-sao / ctu-info=0 / no-lowpass-dct / refine-analysis-type=0 / copy-pic=1 / max-ausize-factor=1.0 / no-dynamic-refine / no-single-sei / no-hevc-aq / no-svt / no-field / qp-adaptation-range=1.00
  22. Default                                  : Yes
  23. Forced                                   : No
  24. Color range                              : Limited
  25. Color primaries                          : BT.2020
  26. Transfer characteristics                 : PQ
  27. Matrix coefficients                      : BT.2020 non-constant
  28. Mastering display color primaries        : Display P3
  29. Mastering display luminance              : min: 0.0050 cd/m2, max: 1000 cd/m2
  30. Maximum Content Light Level              : 1000 cd/m2
  31. Maximum Frame-Average Light Level        : 184 cd/m2

  32. Audio #1
  33. ID                                       : 2
  34. Format                                   : DTS XLL X
  35. Format/Info                              : Digital Theater Systems
  36. Commercial name                          : DTS-HD Master Audio
  37. Codec ID                                 : A_DTS
  38. Duration                                 : 1 h 49 min
  39. Bit rate mode                            : Variable
  40. Bit rate                                 : 6 418 kb/s
  41. Channel(s)                               : 8 channels
  42. Channel(s)_Original                      : Object Based
  43. Channel layout                           : Object Based
  44. Sampling rate                            : 48.0 kHz
  45. Frame rate                               : 93.750 FPS (512 SPF)
  46. Bit depth                                : 24 bits
  47. Stream size                              : 4.89 GiB (18%)
  48. Language                                 : English
  49. Default                                  : Yes
  50. Forced                                   : No

  51. Audio #2
  52. ID                                       : 3
  53. Format                                   : AC-3
  54. Format/Info                              : Audio Coding 3
  55. Commercial name                          : Dolby Digital
  56. Codec ID                                 : A_AC3
  57. Duration                                 : 1 h 49 min
  58. Bit rate mode                            : Constant
  59. Bit rate                                 : 192 kb/s
  60. Channel(s)                               : 2 channels
  61. Channel layout                           : L R
  62. Sampling rate                            : 48.0 kHz
  63. Frame rate                               : 31.250 FPS (1536 SPF)
  64. Bit depth                                : 16 bits
  65. Compression mode                         : Lossy
  66. Stream size                              : 150 MiB (1%)
  67. Language                                 : English
  68. Service kind                             : Complete Main
  69. Default                                  : No
  70. Forced                                   : No

  71. Audio #3
  72. ID                                       : 4
  73. Format                                   : AC-3
  74. Format/Info                              : Audio Coding 3
  75. Commercial name                          : Dolby Digital
  76. Codec ID                                 : A_AC3
  77. Duration                                 : 1 h 49 min
  78. Bit rate mode                            : Constant
  79. Bit rate                                 : 192 kb/s
  80. Channel(s)                               : 2 channels
  81. Channel layout                           : L R
  82. Sampling rate                            : 48.0 kHz
  83. Frame rate                               : 31.250 FPS (1536 SPF)
  84. Bit depth                                : 16 bits
  85. Compression mode                         : Lossy
  86. Stream size                              : 150 MiB (1%)
  87. Language                                 : English
  88. Service kind                             : Complete Main
  89. Default                                  : No
  90. Forced                                   : No

  91. Audio #4
  92. ID                                       : 5
  93. Format                                   : AC-3
  94. Format/Info                              : Audio Coding 3
  95. Commercial name                          : Dolby Digital
  96. Codec ID                                 : A_AC3
  97. Duration                                 : 1 h 49 min
  98. Bit rate mode                            : Constant
  99. Bit rate                                 : 192 kb/s
  100. Channel(s)                               : 2 channels
  101. Channel layout                           : L R
  102. Sampling rate                            : 48.0 kHz
  103. Frame rate                               : 31.250 FPS (1536 SPF)
  104. Bit depth                                : 16 bits
  105. Compression mode                         : Lossy
  106. Stream size                              : 150 MiB (1%)
  107. Language                                 : English
  108. Service kind                             : Complete Main
  109. Default                                  : No
  110. Forced                                   : No

  111. Text #1
  112. ID                                       : 6
  113. Format                                   : PGS
  114. Muxing mode                              : zlib
  115. Codec ID                                 : S_HDMV/PGS
  116. Codec ID/Info                            : Picture based subtitle format used on BDs/HD-DVDs
  117. Duration                                 : 1 h 43 min
  118. Bit rate                                 : 56.9 kb/s
  119. Count of elements                        : 3726
  120. Stream size                              : 42.1 MiB (0%)
  121. Language                                 : English
  122. Default                                  : No
  123. Forced                                   : No

  124. Text #2
  125. ID                                       : 7
  126. Format                                   : PGS
  127. Muxing mode                              : zlib
  128. Codec ID                                 : S_HDMV/PGS
  129. Codec ID/Info                            : Picture based subtitle format used on BDs/HD-DVDs
  130. Duration                                 : 1 h 48 min
  131. Bit rate                                 : 87.8 kb/s
  132. Count of elements                        : 4174
  133. Stream size                              : 68.4 MiB (0%)
  134. Language                                 : English
  135. Default                                  : No
  136. Forced                                   : No

  137. Menu
  138. 00:00:00.000                             : :Kapitel 01
  139. 00:05:38.963                             : :Kapitel 02
  140. 00:10:33.674                             : :Kapitel 03
  141. 00:15:35.434                             : :Kapitel 04
  142. 00:19:57.362                             : :Kapitel 05
  143. 00:25:24.648                             : :Kapitel 06
  144. 00:30:07.847                             : :Kapitel 07
  145. 00:36:10.418                             : :Kapitel 08
  146. 00:42:40.933                             : :Kapitel 09
  147. 00:46:17.900                             : :Kapitel 10
  148. 00:50:20.684                             : :Kapitel 11
  149. 00:57:21.396                             : :Kapitel 12
  150. 01:02:29.871                             : :Kapitel 13
  151. 01:06:31.404                             : :Kapitel 14
  152. 01:12:17.791                             : :Kapitel 15
  153. 01:18:37.671                             : :Kapitel 16
  154. 01:23:51.860                             : :Kapitel 17
  155. 01:26:46.451                             : :Kapitel 18
  156. 01:35:17.420                             : :Kapitel 19
  157. 01:42:20.884                             : :Kapitel 20
復制代碼









本帖隱藏的下載地址需要VIP會員才可瀏覽,您需要升級才可瀏覽,點擊這里升級VIP
分享到:  QQ好友和群QQ好友和群
收藏收藏
VIP會員免費任意下載本站所有資源!---點擊開通
回復

使用道具 舉報

級別:初級觀眾 Lv.1

注冊時間
2019-12-25
最后登錄
2020-2-20
聽眾
1
收聽
0
主題
0
藍光幣
4 枚
貢獻
0 點
沙發
發表于 2020-1-2 15:10:40 | 只看該作者

樓主太厲害了!樓主,電影應該很好看我覺得中國高清電影網真是個好地方!
VIP會員免費任意下載本站所有資源!---點擊開通
回復

使用道具 舉報

級別:普通觀眾 Lv.2

注冊時間
2018-3-7
最后登錄
2020-2-19
聽眾
9
收聽
0
主題
0
藍光幣
1 枚
貢獻
0 點
QQ
板凳
發表于 2020-1-3 14:34:37 | 只看該作者
樓主發貼辛苦了,謝謝樓主分享!我覺得中國高清電影網是注冊對了!
VIP會員免費任意下載本站所有資源!---點擊開通
回復

使用道具 舉報

級別:專業龍套 Lv.4

注冊時間
2019-12-18
最后登錄
2020-2-20
聽眾
1
收聽
0
主題
0
藍光幣
8 枚
貢獻
0 點
地板
發表于 2020-1-3 20:21:45 | 只看該作者
謝謝樓主分享~~謝謝樓主分享~~
VIP會員免費任意下載本站所有資源!---點擊開通
回復

使用道具 舉報

級別:初級觀眾 Lv.1

注冊時間
2020-1-1
最后登錄
2020-1-30
聽眾
1
收聽
0
主題
0
藍光幣
0 枚
貢獻
0 點
5#
發表于 2020-1-4 01:27:54 | 只看該作者

樓主太厲害了!樓主,電影應該很好看我覺得中國高清電影網真是個好地方!
VIP會員免費任意下載本站所有資源!---點擊開通
回復

使用道具 舉報

級別:普通觀眾 Lv.2

注冊時間
2019-12-21
最后登錄
2020-2-19
聽眾
1
收聽
0
主題
0
藍光幣
84 枚
貢獻
0 點
6#
發表于 2020-1-4 07:55:12 | 只看該作者
樓主辛苦,謝謝分享
VIP會員免費任意下載本站所有資源!---點擊開通
回復

使用道具 舉報

級別:專業龍套 Lv.4

注冊時間
2019-12-9
最后登錄
2020-2-20
聽眾
2
收聽
0
主題
0
藍光幣
148 枚
貢獻
0 點
QQ
7#
發表于 2020-1-4 10:30:19 | 只看該作者

我看不錯噢 謝謝樓主!中國高清電影網越來越好!
VIP會員免費任意下載本站所有資源!---點擊開通
回復

使用道具 舉報

級別:群眾演員 Lv.3

注冊時間
2020-1-1
最后登錄
2020-2-21
聽眾
1
收聽
0
主題
0
藍光幣
120 枚
貢獻
0 點
8#
發表于 2020-1-4 10:48:17 | 只看該作者

論壇不能沒有像樓主這樣的人才??!我會一直支持中國高清電影網。
VIP會員免費任意下載本站所有資源!---點擊開通
回復

使用道具 舉報

 成長值: 6370

級別:尊貴的會員

注冊時間
2018-6-4
最后登錄
2020-2-12
聽眾
13
收聽
0
主題
0
藍光幣
138 枚
貢獻
0 點
9#
發表于 2020-1-6 09:36:30 | 只看該作者
樓主發貼辛苦了,謝謝樓主分享!我覺得中國高清電影網是注冊對了!
VIP會員免費任意下載本站所有資源!---點擊開通
回復

使用道具 舉報

級別:初級觀眾 Lv.1

注冊時間
2020-1-6
最后登錄
2020-1-6
聽眾
1
收聽
0
主題
0
藍光幣
0 枚
貢獻
0 點
10#
發表于 2020-1-6 13:30:15 | 只看該作者
感謝分享高清電影,網站越辦越好!
VIP會員免費任意下載本站所有資源!---點擊開通
回復

使用道具 舉報

懶得打字嘛,點擊右側快捷回復 【右側內容,后臺自定義】
您需要登錄后才可以回帖 登錄 | 立即注冊

本版積分規則

Archiver|手機版|小黑屋| 中國高清網 |網站地圖

GMT+8, 2020-2-21 08:54 , Processed in 0.194787 second(s), 38 queries .

Powered by HDchina X3.4

Copyright 2017-2019©HDchina.All right reserved

返回頂部 聯系我們
足球竞彩网