查看: 498|回復: 3
打印 上一主題 下一主題

[10bit.SDR] 奇幻森林/與森林共舞 The.Jungle.Book.2016.2160p.BluRay.x265.10bit.SDR.DTS-HD.MA.TrueHD.7.1.Atmos-SWTYBLZ 33.52GB

[復制鏈接]

 成長值: 4140

級別:資源管理組

注冊時間
2017-10-20
最后登錄
2020-2-21
聽眾
1
收聽
0
主題
92539
藍光幣
100848 枚
貢獻
16901 點
跳轉到指定樓層
樓主
發表于 2020-1-16 20:45:30 | 只看該作者 |只看大圖 回帖獎勵 |倒序瀏覽 |閱讀模式


譯  名 奇幻森林 / 與森林共舞(臺) / 叢林之書 / 森林王子
片  名 The Jungle Book
年  代 2016
產  地 美國
類  別 劇情 / 奇幻 / 冒險
語  言 英語
上映日期 2016-04-15(美國/中國大陸)
IMDb評分  7.4/10 from 247831 users
IMDb鏈接  https://www.imdb.com/title/tt3040964
豆瓣評分 7.8/10 from 204857 users
豆瓣鏈接 https://movie.douban.com/subject/25777636/
片  長 106分鐘
導  演 喬恩·費儒 Jon Favreau
編  劇 賈斯丁·馬科斯 Justin Marks / 拉迪亞德·吉普林 Rudyard Kipling
主  演 尼爾·塞西 Neel Sethi
       比爾·默瑞 Bill Murray
       本·金斯利 Ben Kingsley
       伊德里斯·艾爾巴 Idris Elba
       露皮塔·尼永奧 Lupita Nyong'o
       斯嘉麗·約翰遜 Scarlett Johansson
       吉安卡羅·埃斯波西托 Giancarlo Esposito
       克里斯托弗·沃肯 Christopher Walken
       恩杰伊·安東尼 Emjay Anthony
       蓋瑞·山德林 Garry Shandling
       莎拉·阿林頓 Sara Arrington
       瑞提什·拉詹 Ritesh Rajan


標  簽 奇幻 | 迪士尼 | 美國 | 動畫 | 冒險 | 動物 | Disney | 2016

簡  介  

  茂密的原始森林中,生活著人類小孩毛克利(尼爾·塞西 Neel Sethi 飾)。因某種原因他很小就成為了孤兒,黑豹巴希拉(本·金斯利 Ben Kingsley 配音)最先找到了他,并將毛克利托付給狼族的首領阿克拉。從此以后,毛克利以狼的身份在森林里成長起來,和他的兄弟姐妹們學習捕獵和求生技巧。然而并非所有動物都接受毛克利的存在,特別是曾被人類傷害的老虎謝利·可汗(伊德里斯·艾爾巴 Idris Elba 配音),更將男孩視為眼中釘肉中刺。謝利·可汗向狼族發出威脅,眾狼們不得不為族群的命運做出考量。毛克利不希望“家人”為難,他選擇離開狼群,而唯一陪伴他的巴希拉則希望帶著男孩回歸人類世界。
  即便如此,謝利·可汗也絕不肯善罷甘休,他對男孩展開了無休止的追殺……

獲獎情況  

  第89屆奧斯卡金像獎(2017)
  最佳視覺效果 Andrew R. Jones / 丹·賴蒙 / 羅伯特·萊加托 / 亞當·瓦德茲

  第70屆英國電影學院獎(2017)
  電影獎 最佳特殊視覺效果 Andrew R. Jones / 丹·賴蒙 / 羅伯特·萊加托 / 亞當·瓦德茲

  第44屆動畫安妮獎(2017)
  最佳真人電影動畫角色

  第67屆美國剪輯工會獎(2017)
  音樂/喜劇片最佳剪輯(提名)

  第15屆美國視覺效果協會獎(2017)
  最佳特效電影視覺效果
  最佳真人電影CG動畫角色
  最佳電影虛擬攝影
  最佳真人電影模擬動畫效果
  最佳電影視覺效果合成

  第22屆美國評論家選擇電影獎(2017)
  最佳視覺效果

  第21屆金衛星獎(2017)
  電影部門 最佳動畫片(提名)
  電影部門 最佳改編劇本(提名) 賈斯丁·馬科斯
  電影部門 最佳原創配樂(提名) 約翰·戴布尼
  電影部門 最佳攝影 比爾·波普
  電影部門 最佳視覺效果 Andrew R. Jones / 丹·賴蒙 / 羅伯特·萊加托 / 亞當·瓦德茲
  電影部門 最佳音效(提名) Frank E. Eulner / Lora Hirschberg / 克里斯托弗·博伊斯 / 朗·賈金斯
  電影部門 最佳美術指導(提名) 克里斯托弗·格拉斯

  第20屆好萊塢電影獎(2016)
  年度音效
  最佳賣座片

  第3屆豆瓣電影年度榜單(2016)
  4月最受關注電影
  1. Video
  2. ID                                       : 1
  3. Format                                   : HEVC
  4. Format/Info                              : High Efficiency Video Coding
  5. Format profile                           : Main [email protected]@High
  6. Codec ID                                 : V_MPEGH/ISO/HEVC
  7. Duration                                 : 1 h 45 min
  8. Bit rate                                 : 35.0 Mb/s
  9. Width                                    : 3 840 pixels
  10. Height                                   : 2 076 pixels
  11. Display aspect ratio                     : 1.85:1
  12. Frame rate mode                          : Constant
  13. Frame rate                               : 23.976 (24000/1001) FPS
  14. Color space                              : YUV
  15. Chroma subsampling                       : 4:2:0
  16. Bit depth                                : 10 bits
  17. Bits/(Pixel*Frame)                       : 0.183
  18. Stream size                              : 25.9 GiB (78%)
  19. Title                                    : The.Jungle.Book.2016.2160p.BluRay.x265.10bit.SDR.DTS-HD.MA.TrueHD.7.1.Atmos-SWTYBLZ
  20. Writing library                          : x265 3.0ed72af837053:[Windows][GCC 8.2.0][64 bit] 10bit
  21. Encoding settings                        : cpuid=1111039 / frame-threads=16 / numa-pools=40 / wpp / no-pmode / no-pme / no-psnr / no-ssim / log-level=2 / input-csp=1 / input-res=3840x2076 / interlace=0 / total-frames=152351 / level-idc=51 / high-tier=1 / uhd-bd=0 / ref=3 / no-allow-non-conformance / repeat-headers / annexb / aud / hrd / info / hash=0 / no-temporal-layers / no-open-gop / min-keyint=1 / keyint=24 / gop-lookahead=0 / bframes=4 / b-adapt=2 / b-pyramid / bframe-bias=0 / rc-lookahead=25 / lookahead-slices=4 / scenecut=40 / radl=0 / no-splice / no-intra-refresh / ctu=64 / min-cu-size=8 / no-rect / no-amp / max-tu-size=32 / tu-inter-depth=1 / tu-intra-depth=1 / limit-tu=0 / rdoq-level=0 / dynamic-rd=0.00 / no-ssim-rd / signhide / no-tskip / nr-intra=0 / nr-inter=0 / no-constrained-intra / strong-intra-smoothing / max-merge=2 / limit-refs=3 / no-limit-modes / me=1 / subme=2 / merange=57 / temporal-mvp / weightp / no-weightb / no-analyze-src-pics / deblock=0:0 / no-sao / no-sao-non-deblock / rd=3 / no-early-skip / rskip / no-fast-intra / no-tskip-fast / no-cu-lossless / no-b-intra / no-splitrd-skip / rdpenalty=0 / psy-rd=2.00 / psy-rdoq=0.00 / no-rd-refine / no-lossless / cbqpoffs=0 / crqpoffs=0 / rc=crf / crf=16.0 / qcomp=0.60 / qpstep=4 / stats-write=0 / stats-read=0 / vbv-maxrate=160000 / vbv-bufsize=160000 / vbv-init=0.9 / crf-max=0.0 / crf-min=0.0 / ipratio=1.40 / pbratio=1.30 / aq-mode=1 / aq-strength=1.00 / cutree / zone-count=0 / no-strict-cbr / qg-size=32 / no-rc-grain / qpmax=69 / qpmin=0 / no-const-vbv / sar=1 / overscan=0 / videoformat=5 / range=0 / colorprim=2 / transfer=2 / colormatrix=2 / chromaloc=0 / display-window=0 / max-cll=0,0 / min-luma=0 / max-luma=1023 / log2-max-poc-lsb=8 / vui-timing-info / vui-hrd-info / slices=1 / opt-qp-pps / opt-ref-list-length-pps / no-multi-pass-opt-rps / scenecut-bias=0.05 / no-opt-cu-delta-qp / no-aq-motion / no-hdr / no-hdr-opt / no-dhdr10-opt / no-idr-recovery-sei / analysis-reuse-level=5 / scale-factor=0 / refine-intra=0 / refine-inter=0 / refine-mv=0 / refine-ctu-distortion=0 / no-limit-sao / ctu-info=0 / no-lowpass-dct / refine-analysis-type=0 / copy-pic=1 / max-ausize-factor=1.0 / no-dynamic-refine / no-single-sei / no-hevc-aq / qp-adaptation-range=1.00
  22. Default                                  : Yes
  23. Forced                                   : No

  24. Audio #1
  25. ID                                       : 2
  26. Format                                   : MLP FBA 16-ch
  27. Format/Info                              : Meridian Lossless Packing FBA with 16-channel presentation
  28. Commercial name                          : Dolby TrueHD with Dolby Atmos
  29. Codec ID                                 : A_TRUEHD
  30. Duration                                 : 1 h 45 min
  31. Bit rate mode                            : Variable
  32. Bit rate                                 : 5 185 kb/s
  33. Maximum bit rate                         : 7 926 kb/s
  34. Channel(s)                               : 8 channels
  35. Channel layout                           : L R C LFE Ls Rs Lb Rb
  36. Sampling rate                            : 48.0 kHz
  37. Frame rate                               : 1 200.000 FPS (40 SPF)
  38. Compression mode                         : Lossless
  39. Stream size                              : 3.84 GiB (11%)
  40. Title                                    : The.Jungle.Book.2016.2160p.BluRay.x265.10bit.SDR.DTS-HD.MA.TrueHD.7.1.Atmos-SWTYBLZ
  41. Language                                 : English
  42. Default                                  : Yes
  43. Forced                                   : No
  44. Number of dynamic objects                : 13
  45. Bed channel count                        : 1 channel
  46. Bed channel configuration                : LFE

  47. Audio #2
  48. ID                                       : 3
  49. Format                                   : DTS XLL
  50. Format/Info                              : Digital Theater Systems
  51. Commercial name                          : DTS-HD Master Audio
  52. Codec ID                                 : A_DTS
  53. Duration                                 : 1 h 45 min
  54. Bit rate mode                            : Variable
  55. Bit rate                                 : 4 137 kb/s
  56. Channel(s)                               : 8 channels
  57. Channel layout                           : C L R LFE Lb Rb Lss Rss
  58. Sampling rate                            : 48.0 kHz
  59. Frame rate                               : 93.750 FPS (512 SPF)
  60. Bit depth                                : 24 bits
  61. Compression mode                         : Lossless
  62. Stream size                              : 3.06 GiB (9%)
  63. Title                                    : The.Jungle.Book.2016.2160p.BluRay.x265.10bit.SDR.DTS-HD.MA.TrueHD.7.1.Atmos-SWTYBLZ
  64. Language                                 : English
  65. Default                                  : No
  66. Forced                                   : No

  67. Audio #3
  68. ID                                       : 4
  69. Format                                   : AC-3
  70. Format/Info                              : Audio Coding 3
  71. Commercial name                          : Dolby Digital
  72. Codec ID                                 : A_AC3
  73. Duration                                 : 1 h 45 min
  74. Bit rate mode                            : Constant
  75. Bit rate                                 : 640 kb/s
  76. Channel(s)                               : 6 channels
  77. Channel layout                           : L R C LFE Ls Rs
  78. Sampling rate                            : 48.0 kHz
  79. Frame rate                               : 31.250 FPS (1536 SPF)
  80. Compression mode                         : Lossy
  81. Stream size                              : 485 MiB (1%)
  82. Title                                    : The.Jungle.Book.2016.2160p.BluRay.x265.10bit.SDR.DTS-HD.MA.TrueHD.7.1.Atmos-SWTYBLZ
  83. Language                                 : English
  84. Service kind                             : Complete Main
  85. Default                                  : No
  86. Forced                                   : No

  87. Text #1
  88. ID                                       : 5
  89. Format                                   : UTF-8
  90. Codec ID                                 : S_TEXT/UTF8
  91. Codec ID/Info                            : UTF-8 Plain Text
  92. Duration                                 : 1 h 44 min
  93. Bit rate                                 : 42 b/s
  94. Count of elements                        : 1215
  95. Stream size                              : 32.3 KiB (0%)
  96. Title                                    : English-SRT
  97. Language                                 : English
  98. Default                                  : Yes
  99. Forced                                   : No

  100. Text #2
  101. ID                                       : 6
  102. Format                                   : UTF-8
  103. Codec ID                                 : S_TEXT/UTF8
  104. Codec ID/Info                            : UTF-8 Plain Text
  105. Duration                                 : 1 h 44 min
  106. Bit rate                                 : 47 b/s
  107. Count of elements                        : 1402
  108. Stream size                              : 36.5 KiB (0%)
  109. Title                                    : English-SDH-SRT
  110. Language                                 : English
  111. Default                                  : No
  112. Forced                                   : No

  113. Text #3
  114. ID                                       : 7
  115. Format                                   : PGS
  116. Muxing mode                              : zlib
  117. Codec ID                                 : S_HDMV/PGS
  118. Codec ID/Info                            : Picture based subtitle format used on BDs/HD-DVDs
  119. Duration                                 : 1 h 44 min
  120. Bit rate                                 : 32.4 kb/s
  121. Count of elements                        : 2822
  122. Stream size                              : 24.2 MiB (0%)
  123. Title                                    : English-PGS
  124. Language                                 : English
  125. Default                                  : No
  126. Forced                                   : No

  127. Text #4
  128. ID                                       : 8
  129. Format                                   : PGS
  130. Muxing mode                              : zlib
  131. Codec ID                                 : S_HDMV/PGS
  132. Codec ID/Info                            : Picture based subtitle format used on BDs/HD-DVDs
  133. Duration                                 : 1 h 45 min
  134. Bit rate                                 : 24.8 kb/s
  135. Count of elements                        : 2256
  136. Stream size                              : 18.7 MiB (0%)
  137. Title                                    : French-PGS
  138. Language                                 : French
  139. Default                                  : No
  140. Forced                                   : No

  141. Text #5
  142. ID                                       : 9
  143. Format                                   : PGS
  144. Muxing mode                              : zlib
  145. Codec ID                                 : S_HDMV/PGS
  146. Codec ID/Info                            : Picture based subtitle format used on BDs/HD-DVDs
  147. Duration                                 : 1 h 44 min
  148. Bit rate                                 : 22.6 kb/s
  149. Count of elements                        : 2156
  150. Stream size                              : 17.0 MiB (0%)
  151. Title                                    : French-PGS
  152. Language                                 : French
  153. Default                                  : No
  154. Forced                                   : No

  155. Text #6
  156. ID                                       : 10
  157. Format                                   : PGS
  158. Muxing mode                              : zlib
  159. Codec ID                                 : S_HDMV/PGS
  160. Codec ID/Info                            : Picture based subtitle format used on BDs/HD-DVDs
  161. Duration                                 : 1 h 44 min
  162. Bit rate                                 : 24.1 kb/s
  163. Count of elements                        : 2204
  164. Stream size                              : 18.1 MiB (0%)
  165. Title                                    : Spanish-PGS
  166. Language                                 : Spanish
  167. Default                                  : No
  168. Forced                                   : No

  169. Text #7
  170. ID                                       : 11
  171. Format                                   : PGS
  172. Muxing mode                              : zlib
  173. Codec ID                                 : S_HDMV/PGS
  174. Codec ID/Info                            : Picture based subtitle format used on BDs/HD-DVDs
  175. Duration                                 : 1 h 44 min
  176. Bit rate                                 : 26.9 kb/s
  177. Count of elements                        : 2200
  178. Stream size                              : 20.1 MiB (0%)
  179. Title                                    : German-PGS
  180. Language                                 : German
  181. Default                                  : No
  182. Forced                                   : No

  183. Text #8
  184. ID                                       : 12
  185. Format                                   : PGS
  186. Muxing mode                              : zlib
  187. Codec ID                                 : S_HDMV/PGS
  188. Codec ID/Info                            : Picture based subtitle format used on BDs/HD-DVDs
  189. Duration                                 : 1 h 44 min
  190. Bit rate                                 : 24.5 kb/s
  191. Count of elements                        : 2220
  192. Stream size                              : 18.4 MiB (0%)
  193. Title                                    : Italian-PGS
  194. Language                                 : Italian
  195. Default                                  : No
  196. Forced                                   : No

  197. Text #9
  198. ID                                       : 13
  199. Format                                   : PGS
  200. Muxing mode                              : zlib
  201. Codec ID                                 : S_HDMV/PGS
  202. Codec ID/Info                            : Picture based subtitle format used on BDs/HD-DVDs
  203. Duration                                 : 1 h 44 min
  204. Bit rate                                 : 23.8 kb/s
  205. Count of elements                        : 2216
  206. Stream size                              : 17.9 MiB (0%)
  207. Title                                    : Norwegian-PGS
  208. Language                                 : Norwegian
  209. Default                                  : No
  210. Forced                                   : No

  211. Text #10
  212. ID                                       : 14
  213. Format                                   : PGS
  214. Muxing mode                              : zlib
  215. Codec ID                                 : S_HDMV/PGS
  216. Codec ID/Info                            : Picture based subtitle format used on BDs/HD-DVDs
  217. Duration                                 : 1 h 44 min
  218. Bit rate                                 : 21.4 kb/s
  219. Count of elements                        : 1424
  220. Stream size                              : 16.0 MiB (0%)
  221. Title                                    : Swedish-PGS
  222. Language                                 : Swedish
  223. Default                                  : No
  224. Forced                                   : No

  225. Menu
  226. 00:00:00.000                             : en:Chapter 01
  227. 00:00:48.590                             : en:Chapter 02
  228. 00:05:15.690                             : en:Chapter 03
  229. 00:09:02.250                             : en:Chapter 04
  230. 00:12:42.553                             : en:Chapter 05
  231. 00:16:34.159                             : en:Chapter 06
  232. 00:21:20.320                             : en:Chapter 07
  233. 00:27:15.133                             : en:Chapter 08
  234. 00:35:03.851                             : en:Chapter 09
  235. 00:43:21.890                             : en:Chapter 10
  236. 00:48:05.591                             : en:Chapter 11
  237. 00:53:29.331                             : en:Chapter 12
  238. 00:58:03.271                             : en:Chapter 13
  239. 01:05:47.318                             : en:Chapter 14
  240. 01:10:35.522                             : en:Chapter 15
  241. 01:17:01.325                             : en:Chapter 16
  242. 01:20:49.803                             : en:Chapter 17
  243. 01:24:46.372                             : en:Chapter 18
  244. 01:30:33.052                             : en:Chapter 19
  245. 01:35:53.164                             : en:Chapter 20
復制代碼








本帖隱藏的下載地址需要VIP會員才可瀏覽,您需要升級才可瀏覽,點擊這里升級VIP
分享到:  QQ好友和群QQ好友和群
收藏收藏
VIP會員免費任意下載本站所有資源!---點擊開通
回復

使用道具 舉報

級別:初級觀眾 Lv.1

注冊時間
2020-1-15
最后登錄
2020-2-10
聽眾
1
收聽
0
主題
0
藍光幣
0 枚
貢獻
0 點
QQ
沙發
發表于 2020-1-18 21:02:29 | 只看該作者

我看不錯噢 謝謝樓主!中國高清電影網越來越好!
VIP會員免費任意下載本站所有資源!---點擊開通
回復

使用道具 舉報

級別:專業龍套 Lv.4

注冊時間
2018-10-24
最后登錄
2020-2-20
聽眾
15
收聽
0
主題
0
藍光幣
113 枚
貢獻
0 點
板凳
發表于 2020-1-19 12:30:35 | 只看該作者

這個帖子不回對不起自己!我想我是一天也不能離開中國高清電影網。
VIP會員免費任意下載本站所有資源!---點擊開通
回復

使用道具 舉報

級別:初級觀眾 Lv.1

注冊時間
2020-2-2
最后登錄
2020-2-12
聽眾
1
收聽
0
主題
0
藍光幣
6 枚
貢獻
0 點
地板
發表于 2020-2-12 16:46:56 | 只看該作者
謝謝樓主!這個電影相對不錯!
VIP會員免費任意下載本站所有資源!---點擊開通
回復

使用道具 舉報

懶得打字嘛,點擊右側快捷回復 【右側內容,后臺自定義】
您需要登錄后才可以回帖 登錄 | 立即注冊

本版積分規則

Archiver|手機版|小黑屋| 中國高清網 |網站地圖

GMT+8, 2020-2-21 07:06 , Processed in 0.182429 second(s), 38 queries .

Powered by HDchina X3.4

Copyright 2017-2019©HDchina.All right reserved

返回頂部 聯系我們
足球竞彩网