查看: 171|回復: 4
打印 上一主題 下一主題

[動畫片] 佐格 Zog.2018.1080p.BluRay.x264-JustWatch 2.18GB

[復制鏈接]

 成長值: 4170

級別:資源管理組

注冊時間
2017-10-20
最后登錄
2020-2-24
聽眾
1
收聽
0
主題
92764
藍光幣
103161 枚
貢獻
17126 點
跳轉到指定樓層
樓主
發表于 2020-1-18 00:02:42 | 只看該作者 |只看大圖 回帖獎勵 |倒序瀏覽 |閱讀模式


譯  名 佐格
片  名 Zog
年  代 2018
產  地 英國
類  別 動畫
語  言 英語
上映日期 2018-12-25(英國)
IMDb評分  7.5/10 from 426 users
IMDb鏈接  https://www.imdb.com/title/tt9109620
豆瓣評分 0/10 from 0 users
豆瓣鏈接 https://movie.douban.com/subject/30347097/
片  長 25分鐘
導  演 馬克思·朗 Max Lang
編  劇 Julia Donaldson
主  演 基特·哈靈頓 Kit Harington
       休·斯金納 Hugh Skinner
       崔茜·尤瑪 Tracey Ullman
       帕齊·費倫 Patsy Ferran
       蘭尼·亨利 Lenny Henry


標  簽 BBC | 動畫 | 動畫片 | 動畫短片 | UK | 短片 | 動漫 | 英國

簡  介  

  “雪諾”基特·哈靈頓將為BBC兒童電影《Zog》配音,該片由《咕嚕?!返膭撟骱椭谱鲌F隊打造,劇情十分萌:Zog是一位熱情但經常惹事的龍,正在龍學院學習飛翔、怒吼、噴火和打騎士,為期4年,每年都有一個好心的小女孩替他包扎傷口。但是今年的這位會不會幫Zog完成他龍生中最復雜的挑戰:抓到一位公主呢?
  哈靈頓將配音Gadabout爵士,休·斯金納(《媽媽咪呀2》)已加盟配音Zog,蘭尼·亨利任畫外音,配音陣容還有帕齊·費倫、崔茜·尤瑪等。該片將于今年圣誕在BBC One播出。

獲獎情況  

  第47屆動畫安妮獎(2020)
  最佳制作(提名)

  第25屆上海電視節白玉蘭獎(2019)
  動畫片 最佳動畫片
  1. Video
  2. ID : 1
  3. Format : AVC
  4. Format/Info : Advanced Video Codec
  5. Format profile : [email][email protected][/email]
  6. Format settings : CABAC / 4 Ref Frames
  7. Format settings, CABAC : Yes
  8. Format settings, Reference frames : 4 frames
  9. Codec ID : V_MPEG4/ISO/AVC
  10. Duration : 27 min 20 s
  11. Bit rate : 9 921 kb/s
  12. Width : 1 920 pixels
  13. Height : 1 080 pixels
  14. Display aspect ratio : 16:9
  15. Frame rate mode : Constant
  16. Frame rate : 25.000 FPS
  17. Color space : YUV
  18. Chroma subsampling : 4:2:0
  19. Bit depth : 8 bits
  20. Scan type : Progressive
  21. Bits/(Pixel*Frame) : 0.191
  22. Stream size : 1.85 GiB (85%)
  23. Writing library : x264 core 158 r2988 7817004
  24. Encoding settings : cabac=1 / ref=4 / deblock=1:-2:-2 / analyse=0x3:0x113 / me=umh / subme=8 / psy=1 / psy_rd=1.00:0.00 / mixed_ref=1 / me_range=16 / chroma_me=1 / trellis=2 / 8x8dct=1 / cqm=0 / deadzone=21,11 / fast_pskip=1 / chroma_qp_offset=-2 / threads=34 / lookahead_threads=5 / sliced_threads=0 / nr=0 / decimate=1 / interlaced=0 / bluray_compat=0 / constrained_intra=0 / bframes=3 / b_pyramid=2 / b_adapt=2 / b_bias=0 / direct=3 / weightb=1 / open_gop=0 / weightp=2 / keyint=240 / keyint_min=24 / scenecut=40 / intra_refresh=0 / rc_lookahead=50 / rc=2pass / mbtree=1 / bitrate=9921 / ratetol=1.0 / qcomp=0.60 / qpmin=0 / qpmax=69 / qpstep=4 / cplxblur=20.0 / qblur=0.5 / ip_ratio=1.40 / aq=1:1.00
  25. Language : English
  26. Default : Yes
  27. Forced : No

  28. Audio
  29. ID : 2
  30. Format : DTS
  31. Format/Info : Digital Theater Systems
  32. Codec ID : A_DTS
  33. Duration : 27 min 20 s
  34. Bit rate mode : Constant
  35. Bit rate : 1 509 kb/s
  36. Channel(s) : 6 channels
  37. Channel layout : C L R Ls Rs LFE
  38. Sampling rate : 48.0 kHz
  39. Frame rate : 93.750 FPS (512 SPF)
  40. Bit depth : 24 bits
  41. Compression mode : Lossy
  42. Stream size : 295 MiB (13%)
  43. Language : English
  44. Default : Yes
  45. Forced : No

  46. Menu
  47. 00:00:00.000 : en:00:00:00.000
  48. 00:05:38.800 : en:00:05:38.800
  49. 00:10:55.440 : en:00:10:55.440
  50. 00:16:24.160 : en:00:16:24.160
  51. 00:21:54.560 : en:00:21:54.560
復制代碼







分享到:  QQ好友和群QQ好友和群
收藏收藏
回復

使用道具 舉報

級別:領銜主演 Lv.6

注冊時間
2018-2-26
最后登錄
2020-2-24
聽眾
16
收聽
0
主題
0
藍光幣
230 枚
貢獻
0 點
沙發
發表于 2020-1-18 09:32:12 | 只看該作者

這個帖子不回對不起自己!我想我是一天也不能離開中國高清電影網。
回復

使用道具 舉報

級別:初級觀眾 Lv.1

注冊時間
2019-10-30
最后登錄
2020-1-18
聽眾
1
收聽
0
主題
0
藍光幣
1 枚
貢獻
0 點
板凳
發表于 2020-1-18 16:07:47 | 只看該作者
樓主發貼辛苦了,謝謝樓主分享!我覺得中國高清電影網是注冊對了!
回復

使用道具 舉報

級別:專業龍套 Lv.4

注冊時間
2019-10-27
最后登錄
2020-2-22
聽眾
1
收聽
0
主題
0
藍光幣
250 枚
貢獻
0 點
地板
發表于 2020-1-18 22:52:14 | 只看該作者
樓主發貼辛苦了,謝謝樓主分享!我覺得中國高清電影網是注冊對了!
回復

使用道具 舉報

級別:領銜主演 Lv.6

注冊時間
2018-2-26
最后登錄
2020-2-24
聽眾
16
收聽
0
主題
0
藍光幣
230 枚
貢獻
0 點
5#
發表于 2020-1-20 09:27:24 | 只看該作者

這東西我收了!謝謝樓主!中國高清電影網真好!
回復

使用道具 舉報

懶得打字嘛,點擊右側快捷回復 【右側內容,后臺自定義】
您需要登錄后才可以回帖 登錄 | 立即注冊

本版積分規則

Archiver|手機版|小黑屋| 中國高清網 |網站地圖

GMT+8, 2020-2-24 17:05 , Processed in 0.110773 second(s), 36 queries .

Powered by HDchina X3.4

Copyright 2017-2019©HDchina.All right reserved

返回頂部 聯系我們
足球竞彩网