查看: 255|回復: 9
打印 上一主題 下一主題

[劇情片] 布魯克林秘案/布魯克林孤兒 Motherless.Brooklyn.2019.1080p.BluRay.x264-SPARKS 10.95GB

[復制鏈接]

 成長值: 4170

級別:資源管理組

注冊時間
2017-10-20
最后登錄
2020-2-24
聽眾
1
收聽
0
主題
92764
藍光幣
103149 枚
貢獻
17126 點
跳轉到指定樓層
樓主
發表于 2020-1-18 00:05:05 | 只看該作者 |只看大圖 回帖獎勵 |倒序瀏覽 |閱讀模式


譯  名 布魯克林秘案 / 布魯克林孤兒(臺) / 布魯克林的流浪兒 / 無母之城(港)
片  名 Motherless Brooklyn
年  代 2019
產  地 美國
類  別 劇情 / 犯罪
語  言 英語
上映日期 2019-08-30(特柳賴德電影節) / 2019-09-10(多倫多電影節) / 2019-11-01(美國)
IMDb評分  7.1/10 from 8784 users
IMDb鏈接  https://www.imdb.com/title/tt0385887
豆瓣評分 7.8/10 from 948 users
豆瓣鏈接 https://movie.douban.com/subject/1469353/
片  長 144分鐘
導  演 愛德華·諾頓 Edward Norton
編  劇 愛德華·諾頓 Edward Norton / 喬納森·勒瑟姆 Jonathan Lethem
主  演 布魯斯·威利斯 Bruce Willis
       威廉·達福 Willem Dafoe
       愛德華·諾頓 Edward Norton
       古古·姆巴塔-勞 Gugu Mbatha-Raw
       亞歷克·鮑德溫 Alec Baldwin
       鮑比·坎納瓦爾 Bobby Cannavale
       萊斯利·曼恩 Leslie Mann
       伊?!ぬK普利 Ethan Suplee
       費舍·史蒂芬斯 Fisher Stevens
       達拉斯·羅伯特斯 Dallas Roberts
       邁克爾·肯尼斯·威廉姆斯 Michael Kenneth Williams
       切莉·瓊斯 Cherry Jones
       喬什·帕斯 Josh Pais
       羅伯特·維斯多姆 Robert Wisdom
       斯蒂芬·阿德利·葛爾蓋 Stephen Adly Guirgis
       桃樂絲·麥卡錫 Doris McCarthy
       拉杜·斯平格爾 Radu Spinghel
       黛博拉·安格 Deborah Unger
       奧利·哈斯基維 Olli Haaskivi
       列尼斯·德洛桑托斯 Leonys Delossantos
       布萊斯·科里根 Blaise Corrigan
       羅伯特·邁爾斯 Robert Myers
       凱蒂·戴維斯 Katy Davis
       埃里克·貝瑞曼 Eric Berryman
       埃茲拉·巴恩斯 Ezra Barnes
       尼爾森·艾維登 Nelson Avidon


標  簽 美國 | 犯罪 | 劇情 | 懸疑 | 2019 | 驚悚 | 黑色幽默 | 人性

簡  介  

  故事圍繞1950年代紐約私人偵探萊昂內爾·“布魯克林”·埃斯羅格展開,面對唯一導師兼摯友弗蘭克·明納離奇遇害,身患抽動穢語綜合征的孤兒萊昂內爾不得不上下求索,獨自深入哈林爵士天地和布魯克林窮街陋巷,竭力探尋這起謀殺背后的秘密和真相。
  影片由愛德華·諾頓執導、編劇、制片并主演,于1950年代紐約大轉型背景下重新演繹喬納森·利瑟姆同名小說《布魯克林孤兒》中各色當代人物。

獲獎情況  

  第77屆金球獎(2020)
  電影類 最佳原創配樂(提名) 丹尼爾·彭博頓

  第18屆美國視覺效果協會獎(2020)
  最佳真人電影CG背景(提名)

  第24屆金衛星獎(2020)
  電影部門 最佳改編劇本(提名) 愛德華·諾頓
  電影部門 最佳攝影(提名)
  電影部門 最佳美術指導

  第40屆倫敦影評人協會獎(2020)
  技術成就獎(提名) 丹尼爾·彭博頓
  1. Video
  2. ID                                       : 1
  3. Format                                   : AVC
  4. Format/Info                              : Advanced Video Codec
  5. Format profile                           : [email protected]
  6. Format settings                          : CABAC / 4 Ref Frames
  7. Format settings, CABAC                   : Yes
  8. Format settings, Reference frames        : 4 frames
  9. Codec ID                                 : V_MPEG4/ISO/AVC
  10. Duration                                 : 2 h 24 min
  11. Bit rate                                 : 9 333 kb/s
  12. Width                                    : 1 920 pixels
  13. Height                                   : 1 040 pixels
  14. Display aspect ratio                     : 1.85:1
  15. Frame rate mode                          : Constant
  16. Frame rate                               : 23.976 (24000/1001) FPS
  17. Color space                              : YUV
  18. Chroma subsampling                       : 4:2:0
  19. Bit depth                                : 8 bits
  20. Scan type                                : Progressive
  21. Bits/(Pixel*Frame)                       : 0.195
  22. Stream size                              : 9.41 GiB (86%)
  23. Writing library                          : x264 core 159 r2991 1771b55
  24. Encoding settings                        : cabac=1 / ref=4 / deblock=1:-3:-3 / analyse=0x3:0x113 / me=umh / subme=8 / psy=1 / psy_rd=1.00:0.00 / mixed_ref=1 / me_range=16 / chroma_me=1 / trellis=1 / 8x8dct=1 / cqm=0 / deadzone=21,11 / fast_pskip=1 / chroma_qp_offset=-2 / threads=30 / lookahead_threads=5 / sliced_threads=0 / nr=0 / decimate=1 / interlaced=0 / bluray_compat=0 / constrained_intra=0 / bframes=3 / b_pyramid=2 / b_adapt=1 / b_bias=0 / direct=3 / weightb=1 / open_gop=0 / weightp=2 / keyint=250 / keyint_min=23 / scenecut=40 / intra_refresh=0 / rc_lookahead=50 / rc=2pass / mbtree=1 / bitrate=9333 / ratetol=1.0 / qcomp=0.60 / qpmin=0 / qpmax=69 / qpstep=4 / cplxblur=20.0 / qblur=0.5 / ip_ratio=1.40 / aq=1:1.00
  25. Language                                 : English
  26. Default                                  : Yes
  27. Forced                                   : No

  28. Audio
  29. ID                                       : 2
  30. Format                                   : DTS
  31. Format/Info                              : Digital Theater Systems
  32. Codec ID                                 : A_DTS
  33. Duration                                 : 2 h 24 min
  34. Bit rate mode                            : Constant
  35. Bit rate                                 : 1 509 kb/s
  36. Channel(s)                               : 6 channels
  37. Channel layout                           : C L R Ls Rs LFE
  38. Sampling rate                            : 48.0 kHz
  39. Frame rate                               : 93.750 FPS (512 SPF)
  40. Bit depth                                : 24 bits
  41. Compression mode                         : Lossy
  42. Stream size                              : 1.52 GiB (14%)
  43. Language                                 : English
  44. Default                                  : Yes
  45. Forced                                   : No

  46. Menu
  47. 00:00:00.000                             : en:00:00:00.000
  48. 00:09:57.847                             : en:00:09:57.847
  49. 00:19:20.326                             : en:00:19:20.326
  50. 00:29:14.586                             : en:00:29:14.586
  51. 00:38:47.575                             : en:00:38:47.575
  52. 00:46:33.958                             : en:00:46:33.958
  53. 00:54:01.822                             : en:00:54:01.822
  54. 01:02:12.604                             : en:01:02:12.604
  55. 01:08:42.618                             : en:01:08:42.618
  56. 01:17:48.205                             : en:01:17:48.205
  57. 01:26:55.919                             : en:01:26:55.919
  58. 01:34:07.350                             : en:01:34:07.350
  59. 01:41:25.705                             : en:01:41:25.705
  60. 01:50:29.289                             : en:01:50:29.289
  61. 02:00:21.005                             : en:02:00:21.005
  62. 02:07:02.824                             : en:02:07:02.824
  63. 02:17:16.603                             : en:02:17:16.603
復制代碼







本帖隱藏的下載地址需要VIP會員才可瀏覽,您需要升級才可瀏覽,點擊這里升級VIP
分享到:  QQ好友和群QQ好友和群
收藏收藏
回復

使用道具 舉報

 成長值: 1420

級別:尊貴的會員

注冊時間
2019-11-26
最后登錄
2020-2-23
聽眾
1
收聽
0
主題
0
藍光幣
210 枚
貢獻
0 點
沙發
發表于 2020-1-18 08:40:45 | 只看該作者
樓主發貼辛苦了,謝謝樓主分享!我覺得中國高清電影網是注冊對了!
回復

使用道具 舉報

級別:領銜主演 Lv.6

注冊時間
2018-2-26
最后登錄
2020-2-24
聽眾
16
收聽
0
主題
0
藍光幣
230 枚
貢獻
0 點
板凳
發表于 2020-1-18 09:30:10 | 只看該作者

樓主太厲害了!樓主,電影應該很好看我覺得中國高清電影網真是個好地方!
回復

使用道具 舉報

級別:普通觀眾 Lv.2

注冊時間
2020-1-18
最后登錄
2020-2-23
聽眾
1
收聽
0
主題
0
藍光幣
59 枚
貢獻
0 點
地板
發表于 2020-1-18 11:21:48 | 只看該作者
感謝樓主分享精彩電影
回復

使用道具 舉報

級別:專業龍套 Lv.4

注冊時間
2019-12-9
最后登錄
2020-2-24
聽眾
2
收聽
0
主題
0
藍光幣
159 枚
貢獻
0 點
QQ
5#
發表于 2020-1-18 12:22:53 | 只看該作者
樓主發貼辛苦了,謝謝樓主分享!我覺得中國高清電影網是注冊對了!
回復

使用道具 舉報

級別:群眾演員 Lv.3

注冊時間
2019-12-21
最后登錄
2020-2-24
聽眾
1
收聽
0
主題
0
藍光幣
196 枚
貢獻
0 點
6#
發表于 2020-1-18 17:04:47 | 只看該作者

樓主太厲害了!樓主,電影應該很好看我覺得中國高清電影網真是個好地方!
回復

使用道具 舉報

 成長值: 120

級別:尊貴的會員

注冊時間
2019-12-25
最后登錄
2020-2-16
聽眾
1
收聽
0
主題
0
藍光幣
18 枚
貢獻
0 點
7#
發表于 2020-1-19 11:16:41 | 只看該作者

樓主太厲害了!樓主,電影應該很好看我覺得中國高清電影網真是個好地方!
回復

使用道具 舉報

 成長值: 1330

級別:尊貴的會員

注冊時間
2019-12-4
最后登錄
2020-2-22
聽眾
1
收聽
0
主題
0
藍光幣
8 枚
貢獻
0 點
8#
發表于 2020-1-19 20:16:43 | 只看該作者

樓主太厲害了!樓主,電影應該很好看我覺得中國高清電影網真是個好地方!
回復

使用道具 舉報

級別:領銜主演 Lv.6

注冊時間
2018-2-26
最后登錄
2020-2-24
聽眾
16
收聽
0
主題
0
藍光幣
230 枚
貢獻
0 點
9#
發表于 2020-1-20 09:28:24 | 只看該作者

其實我一直覺得樓主的品味不錯!呵呵!中國高清電影網太棒了!
回復

使用道具 舉報

級別:初級觀眾 Lv.1

注冊時間
2020-1-22
最后登錄
2020-2-18
聽眾
1
收聽
0
主題
0
藍光幣
1 枚
貢獻
0 點
10#
發表于 2020-1-26 20:13:27 | 只看該作者

這個帖子不回對不起自己!我想我是一天也不能離開中國高清電影網。
回復

使用道具 舉報

懶得打字嘛,點擊右側快捷回復 【右側內容,后臺自定義】
您需要登錄后才可以回帖 登錄 | 立即注冊

本版積分規則

Archiver|手機版|小黑屋| 中國高清網 |網站地圖

GMT+8, 2020-2-24 16:54 , Processed in 0.165470 second(s), 37 queries .

Powered by HDchina X3.4

Copyright 2017-2019©HDchina.All right reserved

返回頂部 聯系我們
足球竞彩网