查看: 220|回復: 8
打印 上一主題 下一主題

[動作片] 一個人的武林 Kung.Fu.Jungle.2014.CHINESE.1080p.BluRay.x264.DTS-TayTO 11.63GB

[復制鏈接]

 成長值: 4140

級別:資源管理組

注冊時間
2017-10-20
最后登錄
2020-2-21
聽眾
1
收聽
0
主題
92621
藍光幣
101338 枚
貢獻
16983 點
跳轉到指定樓層
樓主
發表于 2020-1-19 16:01:50 | 只看該作者 |只看大圖 回帖獎勵 |倒序瀏覽 |閱讀模式


譯  名 Kung Fu Jungle / Kung Fu Killer / Last of The Best
片  名 一個人的武林
年  代 2014
產  地 中國大陸 / 中國香港
類  別 動作 / 驚悚
語  言 漢語普通話 / 粵語
上映日期 2014-10-31(中國大陸)
IMDb評分  6.5/10 from 9098 users
IMDb鏈接  https://www.imdb.com/title/tt2952602
豆瓣評分 6.4/10 from 61594 users
豆瓣鏈接 https://movie.douban.com/subject/24695277/
片  長 100分鐘
導  演 陳德森 Teddy Chan
編  劇 劉浩良 Ho Leung Lau / 麥天樞 Tin Shu Mak / 陳德森 Teddy Chan
主  演 甄子丹 Donnie Yen
       王寶強 Baoqiang Wang
       楊采妮 Charlie Yeung
       白冰 Bing Bai
       方中信 Alex Fong
       樊少皇 Siu-Wong Fan
       釋行宇 Xingyu Shi
       姜大衛 David Chiang
       喻亢 Kang Yu
       思漩 Christie Chen
       吳浩康 Deep Ng
       紀煥博 Rock Ji
       王嘉慧 Jessica Wong
       張文杰 Man Kit Cheung
       劉偉強 Andrew Lau
       郭子健 Derek Kwok Chi-kin
       孟海 Hoi Mang
       鄒文懷 Raymond Chow
       袁祥仁 Cheung-Yan Yuen
       張藍心 Lanxin Zhang
       元彬 Bun Yuen


標  簽 動作 | 甄子丹 | 王寶強 | 香港 | 香港電影 | 犯罪 | 2014 | 暴力

簡  介  

  孔武有力的夏侯武(甄子丹 飾)曾是佛山武館合一門的弟子,當年他爭強好勝,在香港擔任教官時與他人比武,結果失手將對方打死最終鋃鐺入獄。三年后的某天,鬧市街頭發生一宗離奇車禍,死者似乎在車禍前就被武功高強之人殘忍殺害。夏侯武在獄中看到該新聞,心知在此背后有一場針對武林中人的獵殺正有條不紊地展開。他強烈要求面見重案組總督察陸玄心(楊采妮 飾),由于言中接下來命案的遇害者,終于取得陸督察的信任,得以協助警方辦案。與此同時,先天殘疾卻練得一身絕技的封于修(王寶強 飾)四處挑戰隱于鬧市的高手,更在獲勝后將他們無情殺害。
  武林波濤洶涌,夏侯武和封于修迎來對決的終極時刻……

獲獎情況  

  第51屆臺北金馬影展(2014)
  金馬獎 最佳動作設計(提名) 董瑋 / 甄子丹 / 嚴華 / 元彬

  第34屆香港電影金像獎(2015)
  最佳男配角(提名) 王寶強
  最佳動作設計
  最佳音響效果(提名)
  最佳視覺效果(提名)
  1. Video
  2. ID                                       : 1
  3. Format                                   : AVC
  4. Format/Info                              : Advanced Video Codec
  5. Format profile                           : [email protected]
  6. Format settings                          : CABAC / 5 Ref Frames
  7. Format settings, CABAC                   : Yes
  8. Format settings, Reference frames        : 5 frames
  9. Codec ID                                 : V_MPEG4/ISO/AVC
  10. Duration                                 : 1 h 40 min
  11. Bit rate                                 : 15.1 Mb/s
  12. Width                                    : 1 920 pixels
  13. Height                                   : 816 pixels
  14. Display aspect ratio                     : 2.35:1
  15. Frame rate mode                          : Constant
  16. Frame rate                               : 24.000 FPS
  17. Color space                              : YUV
  18. Chroma subsampling                       : 4:2:0
  19. Bit depth                                : 8 bits
  20. Scan type                                : Progressive
  21. Bits/(Pixel*Frame)                       : 0.402
  22. Stream size                              : 10.6 GiB (91%)
  23. Title                                    : hungdaita @ TayTO
  24. Writing library                          : x264 core 142 r2431+42 c69a006 tMod [[email protected] X86_64]
  25. Encoding settings                        : cabac=1 / ref=5 / deblock=1:-3:-3 / analyse=0x3:0x133 / me=umh / subme=11 / psy=1 / fade_compensate=0.00 / psy_rd=1.05:0.00 / mixed_ref=1 / me_range=48 / chroma_me=1 / trellis=2 / 8x8dct=1 / cqm=0 / deadzone=21,11 / fast_pskip=0 / chroma_qp_offset=-2 / threads=12 / lookahead_threads=2 / sliced_threads=0 / nr=0 / decimate=0 / interlaced=0 / bluray_compat=0 / constrained_intra=0 / fgo=0 / bframes=8 / b_pyramid=2 / b_adapt=2 / b_bias=0 / direct=3 / weightb=1 / open_gop=0 / weightp=2 / keyint=250 / keyint_min=24 / scenecut=40 / intra_refresh=0 / rc_lookahead=60 / rc=crf / mbtree=0 / crf=16.2000 / qcomp=0.70 / qpmin=0:0:0 / qpmax=69:69:69 / qpstep=4 / vbv_maxrate=50000 / vbv_bufsize=62500 / crf_max=0.0 / nal_hrd=none / filler=0 / ip_ratio=1.30 / pb_ratio=1.20 / aq=1:0.80 / aq-sensitivity=10.00 / aq-factor=1.00:1.00:1.00 / aq2=0 / aq3=0 / zones=180,981,b=1.8/2532,4922,b=1.5/26877,26952,b=1.5/27019,27178,b=1.5/56113,56155,b=1.5
  26. Language                                 : Chinese
  27. Default                                  : Yes
  28. Forced                                   : No
  29. Color range                              : Limited
  30. Matrix coefficients                      : BT.709

  31. Audio
  32. ID                                       : 2
  33. Format                                   : DTS
  34. Format/Info                              : Digital Theater Systems
  35. Codec ID                                 : A_DTS
  36. Duration                                 : 1 h 40 min
  37. Bit rate mode                            : Constant
  38. Bit rate                                 : 1 509 kb/s
  39. Channel(s)                               : 6 channels
  40. Channel layout                           : C L R Ls Rs LFE
  41. Sampling rate                            : 48.0 kHz
  42. Frame rate                               : 93.750 FPS (512 SPF)
  43. Bit depth                                : 16 bits
  44. Compression mode                         : Lossy
  45. Stream size                              : 1.05 GiB (9%)
  46. Title                                    : Cantonese
  47. Language                                 : Chinese
  48. Default                                  : Yes
  49. Forced                                   : No

  50. Text #1
  51. ID                                       : 3
  52. Format                                   : UTF-8
  53. Codec ID                                 : S_TEXT/UTF8
  54. Codec ID/Info                            : UTF-8 Plain Text
  55. Duration                                 : 1 h 32 min
  56. Bit rate                                 : 37 b/s
  57. Count of elements                        : 971
  58. Stream size                              : 25.3 KiB (0%)
  59. Language                                 : English
  60. Default                                  : No
  61. Forced                                   : No

  62. Text #2
  63. ID                                       : 4
  64. Format                                   : UTF-8
  65. Codec ID                                 : S_TEXT/UTF8
  66. Codec ID/Info                            : UTF-8 Plain Text
  67. Duration                                 : 1 h 32 min
  68. Bit rate                                 : 34 b/s
  69. Count of elements                        : 956
  70. Stream size                              : 23.1 KiB (0%)
  71. Title                                    : Simplified
  72. Language                                 : Chinese
  73. Default                                  : No
  74. Forced                                   : No

  75. Text #3
  76. ID                                       : 5
  77. Format                                   : UTF-8
  78. Codec ID                                 : S_TEXT/UTF8
  79. Codec ID/Info                            : UTF-8 Plain Text
  80. Duration                                 : 1 h 32 min
  81. Bit rate                                 : 34 b/s
  82. Count of elements                        : 956
  83. Stream size                              : 23.1 KiB (0%)
  84. Title                                    : Traditional
  85. Language                                 : Chinese
  86. Default                                  : No
  87. Forced                                   : No

  88. Text #4
  89. ID                                       : 6
  90. Format                                   : UTF-8
  91. Codec ID                                 : S_TEXT/UTF8
  92. Codec ID/Info                            : UTF-8 Plain Text
  93. Duration                                 : 1 h 35 min
  94. Bit rate                                 : 75 b/s
  95. Count of elements                        : 1143
  96. Stream size                              : 52.8 KiB (0%)
  97. Title                                    : PDV
  98. Language                                 : Vietnamese
  99. Default                                  : No
  100. Forced                                   : No

  101. Menu
  102. 00:00:00.000                             : en:00:00:00.000
  103. 00:07:54.667                             : en:00:07:54.667
  104. 00:14:51.083                             : en:00:14:51.083
  105. 00:25:19.083                             : en:00:25:19.083
  106. 00:33:39.458                             : en:00:33:39.458
  107. 00:41:16.750                             : en:00:41:16.750
  108. 00:50:02.208                             : en:00:50:02.208
  109. 00:58:43.417                             : en:00:58:43.417
  110. 01:07:20.000                             : en:01:07:20.000
  111. 01:14:41.833                             : en:01:14:41.833
  112. 01:23:55.917                             : en:01:23:55.917
  113. 01:33:36.708                             : en:01:33:36.708
復制代碼








分享到:  QQ好友和群QQ好友和群
收藏收藏1
VIP會員免費任意下載本站所有資源!---點擊開通
回復

使用道具 舉報

級別:群眾演員 Lv.3

注冊時間
2019-1-30
最后登錄
2020-2-21
聽眾
9
收聽
0
主題
0
藍光幣
1 枚
貢獻
0 點
QQ
沙發
發表于 2020-1-19 18:11:11 | 只看該作者
樓主發貼辛苦了,謝謝樓主分享!我覺得中國高清電影網是注冊對了!
VIP會員免費任意下載本站所有資源!---點擊開通
回復

使用道具 舉報

級別:專業龍套 Lv.4

注冊時間
2019-10-27
最后登錄
2020-2-21
聽眾
1
收聽
0
主題
0
藍光幣
249 枚
貢獻
0 點
板凳
發表于 2020-1-19 22:46:31 | 只看該作者
樓主發貼辛苦了,謝謝樓主分享!我覺得中國高清電影網是注冊對了!
VIP會員免費任意下載本站所有資源!---點擊開通
回復

使用道具 舉報

級別:普通觀眾 Lv.2

注冊時間
2020-1-13
最后登錄
2020-2-21
聽眾
1
收聽
0
主題
0
藍光幣
59 枚
貢獻
0 點
地板
發表于 2020-1-19 23:02:50 | 只看該作者
宇宙最強, 謝謝分享
VIP會員免費任意下載本站所有資源!---點擊開通
回復

使用道具 舉報

級別:普通觀眾 Lv.2

注冊時間
2020-1-13
最后登錄
2020-2-21
聽眾
1
收聽
0
主題
0
藍光幣
59 枚
貢獻
0 點
5#
發表于 2020-1-19 23:03:33 | 只看該作者
多分享這類動作電影, 好好好, 謝謝.
VIP會員免費任意下載本站所有資源!---點擊開通
回復

使用道具 舉報

級別:普通觀眾 Lv.2

注冊時間
2020-1-13
最后登錄
2020-2-21
聽眾
1
收聽
0
主題
0
藍光幣
59 枚
貢獻
0 點
6#
發表于 2020-1-20 05:24:16 | 只看該作者
很喜歡這位武打明星的電影
VIP會員免費任意下載本站所有資源!---點擊開通
回復

使用道具 舉報

級別:榮升主角 Lv.5

注冊時間
2018-2-26
最后登錄
2020-2-20
聽眾
16
收聽
0
主題
0
藍光幣
226 枚
貢獻
0 點
7#
發表于 2020-1-20 09:25:30 | 只看該作者

這東西我收了!謝謝樓主!中國高清電影網真好!
VIP會員免費任意下載本站所有資源!---點擊開通
回復

使用道具 舉報

級別:群眾演員 Lv.3

注冊時間
2019-12-16
最后登錄
2020-2-21
聽眾
1
收聽
0
主題
0
藍光幣
112 枚
貢獻
0 點
8#
發表于 2020-1-20 20:12:42 | 只看該作者
謝謝樓主分享電影!
VIP會員免費任意下載本站所有資源!---點擊開通
回復

使用道具 舉報

級別:普通觀眾 Lv.2

注冊時間
2020-1-22
最后登錄
2020-2-21
聽眾
1
收聽
0
主題
0
藍光幣
9 枚
貢獻
0 點
QQ
9#
發表于 2020-1-22 03:35:37 | 只看該作者
謝謝樓主分享!
VIP會員免費任意下載本站所有資源!---點擊開通
回復

使用道具 舉報

懶得打字嘛,點擊右側快捷回復 【右側內容,后臺自定義】
您需要登錄后才可以回帖 登錄 | 立即注冊

本版積分規則

Archiver|手機版|小黑屋| 中國高清網 |網站地圖

GMT+8, 2020-2-21 22:59 , Processed in 0.171486 second(s), 37 queries .

Powered by HDchina X3.4

Copyright 2017-2019©HDchina.All right reserved

返回頂部 聯系我們
足球竞彩网