查看: 305|回復: 4
打印 上一主題 下一主題

[劇情片] 我們都是超能力者!電影版 Everyone.Is.Psychic.the.Movie.2015.JAPANESE.1080p.BluRay.x264.DTS-iKiW 10.43GB

[復制鏈接]

 成長值: 4120

級別:資源管理組

注冊時間
2017-10-20
最后登錄
2020-2-19
聽眾
1
收聽
0
主題
92491
藍光幣
100088 枚
貢獻
16853 點
跳轉到指定樓層
樓主
發表于 2020-1-19 16:22:15 | 只看該作者 |只看大圖 回帖獎勵 |倒序瀏覽 |閱讀模式


譯  名 我們都是超能力者!電影版 / The Virgin Psychics / 超能勁處男(港)
片  名 映畫 みんな!エスパーだよ!
年  代 2015
產  地 日本
類  別 劇情 / 喜劇 / 懸疑
語  言 日語 / 英語
上映日期 2015-09-04(日本)
IMDb評分  5.3/10 from 642 users
IMDb鏈接  https://www.imdb.com/title/tt4473370
豆瓣評分 5.2/10 from 13714 users
豆瓣鏈接 https://movie.douban.com/subject/26328479/
片  長 114分鐘
導  演 園子溫 Shion Sono
編  劇 園子溫 Shion Sono
主  演 染谷將太 Sh?ta Sometani
       池田依來沙 Elaiza Ikeda
       真野惠里菜 Erina Mano
       槙田雄司 Makita Sports
       深水元基 Motoki Fukami
       柾木玲彌 Reiya Masaki
       柄本時生 Tokio Emoto
       神樂坂惠 Megumi Kagurazaka
       安田顯 Ken Yasuda
       高橋瑪莉潤 Maryjun Takahashi
       富手麻妙 Ami Tomite
       薩赫勒?羅薩 Sahel Rosa
       今野杏南 Anna Konno
       星名美津紀 Mizuki Hoshina
       筱崎愛 Ai Shinozaki


標  簽 日本 | 情色 | 喜劇 | 搞笑 | 青春 | 科幻 | 園子溫 | 2015

簡  介  

  園子溫2015年第五部電影作品。 1313年由園子溫主要執導的無節操深夜劇《我們都是超能力者!》除了要在今年春季推出電視特別篇《超能力者上東京》,還將拍攝劇場版《我們都是超能力者!》。主演仍將由染谷將太擔任,預計于今年九月上映。 園子溫評論:“當時拍電視劇時,電視臺很慷慨地給了我從服裝、班底到演員的全部決定權,很想拍攝所有集,但因為日程不得不將很多集拜托給了其他導演。因此這次可以全部自己來,十分開心?!?br />
  1. Video
  2. ID                                       : 1
  3. Format                                   : AVC
  4. Format/Info                              : Advanced Video Codec
  5. Format profile                           : [email protected]
  6. Format settings                          : CABAC / 4 Ref Frames
  7. Format settings, CABAC                   : Yes
  8. Format settings, Reference frames        : 4 frames
  9. Codec ID                                 : V_MPEG4/ISO/AVC
  10. Duration                                 : 1 h 54 min
  11. Bit rate                                 : 11.5 Mb/s
  12. Width                                    : 1 920 pixels
  13. Height                                   : 1 036 pixels
  14. Display aspect ratio                     : 1.85:1
  15. Frame rate mode                          : Constant
  16. Frame rate                               : 23.976 (24000/1001) FPS
  17. Color space                              : YUV
  18. Chroma subsampling                       : 4:2:0
  19. Bit depth                                : 8 bits
  20. Scan type                                : Progressive
  21. Bits/(Pixel*Frame)                       : 0.241
  22. Stream size                              : 9.20 GiB (88%)
  23. Writing library                          : x264 core 142 r2431+42 c69a006 tMod [[email protected] X86_64]
  24. Encoding settings                        : cabac=1 / ref=4 / deblock=1:-3:-3 / analyse=0x3:0x133 / me=umh / subme=11 / psy=1 / fade_compensate=0.00 / psy_rd=1.05:0.05 / mixed_ref=1 / me_range=64 / chroma_me=1 / trellis=2 / 8x8dct=1 / cqm=0 / deadzone=21,11 / fast_pskip=0 / chroma_qp_offset=-1 / threads=12 / lookahead_threads=2 / sliced_threads=0 / nr=0 / decimate=0 / interlaced=0 / bluray_compat=0 / constrained_intra=0 / fgo=0 / bframes=8 / b_pyramid=2 / b_adapt=2 / b_bias=0 / direct=3 / weightb=1 / open_gop=0 / weightp=2 / keyint=250 / keyint_min=23 / scenecut=40 / intra_refresh=0 / rc_lookahead=150 / rc=2pass / mbtree=0 / bitrate=11500 / ratetol=1.0 / qcomp=0.70 / qpmin=0:0:0 / qpmax=69:69:69 / qpstep=4 / cplxblur=20.0 / qblur=0.5 / vbv_maxrate=50000 / vbv_bufsize=50000 / nal_hrd=none / filler=0 / ip_ratio=1.40 / pb_ratio=1.30 / aq=1:0.85 / aq-sensitivity=10.00 / aq-factor=1.00:1.00:1.00 / aq2=0 / aq3=0
  25. Language                                 : Japanese
  26. Default                                  : Yes
  27. Forced                                   : No
  28. Color range                              : Limited
  29. Matrix coefficients                      : BT.709

  30. Audio
  31. ID                                       : 2
  32. Format                                   : DTS
  33. Format/Info                              : Digital Theater Systems
  34. Codec ID                                 : A_DTS
  35. Duration                                 : 1 h 54 min
  36. Bit rate mode                            : Constant
  37. Bit rate                                 : 1 509 kb/s
  38. Channel(s)                               : 6 channels
  39. Channel layout                           : C L R Ls Rs LFE
  40. Sampling rate                            : 48.0 kHz
  41. Frame rate                               : 93.750 FPS (512 SPF)
  42. Bit depth                                : 24 bits
  43. Compression mode                         : Lossy
  44. Stream size                              : 1.21 GiB (12%)
  45. Language                                 : Japanese
  46. Default                                  : Yes
  47. Forced                                   : No

  48. Text #1
  49. ID                                       : 3
  50. Format                                   : UTF-8
  51. Codec ID                                 : S_TEXT/UTF8
  52. Codec ID/Info                            : UTF-8 Plain Text
  53. Duration                                 : 1 h 54 min
  54. Bit rate                                 : 38 b/s
  55. Count of elements                        : 1425
  56. Stream size                              : 32.3 KiB (0%)
  57. Language                                 : English
  58. Default                                  : Yes
  59. Forced                                   : No

  60. Text #2
  61. ID                                       : 4
  62. Format                                   : ASS
  63. Codec ID                                 : S_TEXT/ASS
  64. Codec ID/Info                            : Advanced Sub Station Alpha
  65. Duration                                 : 1 h 53 min
  66. Bit rate                                 : 103 b/s
  67. Count of elements                        : 1742
  68. Compression mode                         : Lossless
  69. Stream size                              : 86.1 KiB (0%)
  70. Title                                    : CHT
  71. Language                                 : Chinese
  72. Default                                  : No
  73. Forced                                   : No

  74. Menu
  75. 00:00:00.000                             : en:00:00:00.000
  76. 00:10:05.104                             : en:00:10:05.104
  77. 00:18:07.712                             : en:00:18:07.712
  78. 00:24:12.326                             : en:00:24:12.326
  79. 00:33:24.544                             : en:00:33:24.544
  80. 00:42:31.591                             : en:00:42:31.591
  81. 00:49:44.273                             : en:00:49:44.273
  82. 00:54:06.076                             : en:00:54:06.076
  83. 01:02:19.986                             : en:01:02:19.986
  84. 01:13:18.811                             : en:01:13:18.811
  85. 01:19:15.501                             : en:01:19:15.501
  86. 01:28:55.830                             : en:01:28:55.830
  87. 01:38:03.544                             : en:01:38:03.544
  88. 01:43:15.272                             : en:01:43:15.272
  89. 01:50:11.146                             : en:01:50:11.146
復制代碼








分享到:  QQ好友和群QQ好友和群
收藏收藏
VIP會員免費任意下載本站所有資源!---點擊開通
回復

使用道具 舉報

 成長值: 445

級別:尊貴的會員

注冊時間
2019-12-21
最后登錄
2020-2-19
聽眾
1
收聽
0
主題
0
藍光幣
0 枚
貢獻
0 點
沙發
發表于 2020-1-19 18:36:10 | 只看該作者
謝謝分享,不錯不錯不錯
VIP會員免費任意下載本站所有資源!---點擊開通
回復

使用道具 舉報

 成長值: 1345

級別:尊貴的會員

注冊時間
2019-11-26
最后登錄
2020-2-19
聽眾
1
收聽
0
主題
0
藍光幣
200 枚
貢獻
0 點
板凳
發表于 2020-1-19 20:13:54 | 只看該作者
樓主發貼辛苦了,謝謝樓主分享!我覺得中國高清電影網是注冊對了!
VIP會員免費任意下載本站所有資源!---點擊開通
回復

使用道具 舉報

級別:榮升主角 Lv.5

注冊時間
2018-2-26
最后登錄
2020-2-19
聽眾
16
收聽
0
主題
0
藍光幣
226 枚
貢獻
0 點
地板
發表于 2020-1-20 09:23:53 | 只看該作者

我看不錯噢 謝謝樓主!中國高清電影網越來越好!
VIP會員免費任意下載本站所有資源!---點擊開通
回復

使用道具 舉報

級別:群眾演員 Lv.3

注冊時間
2020-2-4
最后登錄
2020-2-18
聽眾
1
收聽
0
主題
0
藍光幣
9 枚
貢獻
0 點
5#
發表于 5 天前 | 只看該作者

這個帖子不回對不起自己!我想我是一天也不能離開中國高清電影網。
VIP會員免費任意下載本站所有資源!---點擊開通
回復

使用道具 舉報

懶得打字嘛,點擊右側快捷回復 【右側內容,后臺自定義】
您需要登錄后才可以回帖 登錄 | 立即注冊

本版積分規則

Archiver|手機版|小黑屋| 中國高清網 |網站地圖

GMT+8, 2020-2-19 21:46 , Processed in 0.192677 second(s), 36 queries .

Powered by HDchina X3.4

Copyright 2017-2019©HDchina.All right reserved

返回頂部 聯系我們
足球竞彩网