查看: 554|回復: 3
打印 上一主題 下一主題

[REMUX.HEVC] 終結者:黑暗命運 Terminator.Dark.Fate.2019.2160p.BluRay.REMUX.HEVC.DTS-HD.MA.TrueHD.7.1.Atmos-FGT 58.33GB

[復制鏈接]

 成長值: 4140

級別:資源管理組

注冊時間
2017-10-20
最后登錄
2020-2-21
聽眾
1
收聽
0
主題
92621
藍光幣
101360 枚
貢獻
16983 點
跳轉到指定樓層
樓主
發表于 2020-1-19 16:24:51 | 只看該作者 |只看大圖 回帖獎勵 |倒序瀏覽 |閱讀模式


譯  名 終結者:黑暗命運 / Terminator 6 / 未來戰士:黑暗命運(港) / 終結者2019 / 終結者6 / 終結者6:黑暗命運 / 終結者6:黑暗宿命 / 魔鬼終結者:黑暗宿命(臺)
片  名 Terminator: Dark Fate
年  代 2019
產  地 美國 / 中國大陸
類  別 動作 / 科幻 / 冒險
語  言 英語
上映日期 2019-10-23(法國) / 2019-11-01(美國/中國大陸)
IMDb評分  6.4/10 from 60728 users
IMDb鏈接  https://www.imdb.com/title/tt6450804
豆瓣評分 7.1/10 from 86363 users
豆瓣鏈接 https://movie.douban.com/subject/27109633/
片  長 128分鐘
導  演 蒂姆·米勒 Tim Miller
編  劇 詹姆斯·卡梅隆 James Cameron / 查爾斯·H·伊格里 Charles H. Eglee / 喬什·弗萊德曼 Josh Friedman / 大衛·S·高耶 David S. Goyer / 賈斯汀·羅德斯 Justin Rhodes / 比利·雷 Billy Ray / 蓋爾·安妮·赫德 Gale Anne Hurd
主  演 麥肯茲·戴維斯 Mackenzie Davis
       娜塔利婭·雷耶斯 Natalia Reyes
       琳達·漢密爾頓 Linda Hamilton
       阿諾·施瓦辛格 Arnold Schwarzenegger
       加布里埃爾·魯納 Gabriel Luna
       迪耶戈·博內塔 Diego Boneta
       恩里克·阿爾切 Enrique Arce
       特里斯坦·烏羅阿 Tristán Ulloa
       艾麗西婭·博拉切羅 Alicia Borrachero
       布雷特·阿扎爾 Brett Azar
       史蒂芬·克里 Steven Cree
       羅謝爾·尼爾 Rochelle Neil
       弗雷澤·杰姆斯 Fraser James
       克勞迪婭·特魯希略 Claudia Trujillo
       比約恩·弗賴貝格 Bj?rn Freiberg
       約翰·蓋蒂爾 John Gettier
       彼得·奧蒙德 Peter Ormond
       Lorna Brown
       Peter Schueller


標  簽 科幻 | 動作 | 美國 | 機器人 | 2019 | 情懷 | 冒險 | 劇情

簡  介  

  《終結者2:審判日》發生的27年后,由于未來天網派來T-800成功殺死年幼的約翰,以致令未來產生變化,一個全新進化的液態金屬終結者從未來派出,目的是追殺持有關鍵訊息的丹妮·拉莫斯、半生化人葛蕾絲和她的朋友。這使莎拉·康納以及成功殺死約翰的T800終結者前來幫助她們一行人,以共同為了人類的未來而戰。

獲獎情況  

  第6屆豆瓣電影年度榜單(2019)
  評分最高的科幻/動作片(提名)
  1. Video #1
  2. ID                                       : 1
  3. Format                                   : HEVC
  4. Format/Info                              : High Efficiency Video Coding
  5. Format profile                           : Main [email protected]@High
  6. HDR format                               : SMPTE ST 2086, HDR10 compatible
  7. Codec ID                                 : V_MPEGH/ISO/HEVC
  8. Duration                                 : 2 h 8 min
  9. Bit rate                                 : 48.7 Mb/s
  10. Width                                    : 3 840 pixels
  11. Height                                   : 2 160 pixels
  12. Display aspect ratio                     : 16:9
  13. Frame rate mode                          : Constant
  14. Frame rate                               : 23.976 (24000/1001) FPS
  15. Color space                              : YUV
  16. Chroma subsampling                       : 4:2:0 (Type 2)
  17. Bit depth                                : 10 bits
  18. Bits/(Pixel*Frame)                       : 0.245
  19. Stream size                              : 43.6 GiB (75%)
  20. Title                                    : Terminator.Dark.Fate.2019.2160p.BluRay.REMUX.HEVC.DTS-HD.MA.TrueHD.7.1.Atmos-FGT
  21. Language                                 : English
  22. Default                                  : Yes
  23. Forced                                   : No
  24. Color range                              : Limited
  25. Color primaries                          : BT.2020
  26. Transfer characteristics                 : PQ
  27. Matrix coefficients                      : BT.2020 non-constant
  28. Mastering display color primaries        : Display P3
  29. Mastering display luminance              : min: 0.0001 cd/m2, max: 1000 cd/m2
  30. Maximum Content Light Level              : 1000 cd/m2
  31. Maximum Frame-Average Light Level        : 446 cd/m2

  32. Video #2
  33. ID                                       : 2
  34. Format                                   : HEVC
  35. Format/Info                              : High Efficiency Video Coding
  36. Format profile                           : Main [email protected]@High
  37. HDR format                               : SMPTE ST 2086, HDR10 compatible
  38. Codec ID                                 : V_MPEGH/ISO/HEVC
  39. Duration                                 : 2 h 8 min
  40. Bit rate                                 : 5 129 kb/s
  41. Width                                    : 1 920 pixels
  42. Height                                   : 1 080 pixels
  43. Display aspect ratio                     : 16:9
  44. Frame rate mode                          : Constant
  45. Frame rate                               : 23.976 (24000/1001) FPS
  46. Color space                              : YUV
  47. Chroma subsampling                       : 4:2:0 (Type 2)
  48. Bit depth                                : 10 bits
  49. Bits/(Pixel*Frame)                       : 0.103
  50. Stream size                              : 4.59 GiB (8%)
  51. Title                                    : Terminator.Dark.Fate.2019.2160p.BluRay.REMUX.HEVC.DTS-HD.MA.TrueHD.7.1.Atmos-FGT
  52. Language                                 : English
  53. Default                                  : No
  54. Forced                                   : No
  55. Color range                              : Limited
  56. Color primaries                          : BT.2020
  57. Transfer characteristics                 : PQ
  58. Matrix coefficients                      : BT.2020 non-constant
  59. Mastering display color primaries        : Display P3
  60. Mastering display luminance              : min: 0.0001 cd/m2, max: 1000 cd/m2

  61. Audio #1
  62. ID                                       : 3
  63. Format                                   : MLP FBA 16-ch
  64. Format/Info                              : Meridian Lossless Packing FBA with 16-channel presentation
  65. Commercial name                          : Dolby TrueHD with Dolby Atmos
  66. Codec ID                                 : A_TRUEHD
  67. Duration                                 : 2 h 8 min
  68. Bit rate mode                            : Variable
  69. Bit rate                                 : 4 634 kb/s
  70. Maximum bit rate                         : 8 247 kb/s
  71. Channel(s)                               : 8 channels
  72. Channel layout                           : L R C LFE Ls Rs Lb Rb
  73. Sampling rate                            : 48.0 kHz
  74. Frame rate                               : 1 200.000 FPS (40 SPF)
  75. Compression mode                         : Lossless
  76. Delay relative to video                  : 9 ms
  77. Stream size                              : 4.15 GiB (7%)
  78. Title                                    : Terminator.Dark.Fate.2019.2160p.BluRay.REMUX.HEVC.DTS-HD.MA.TrueHD.7.1.Atmos-FGT
  79. Language                                 : English
  80. Default                                  : Yes
  81. Forced                                   : No
  82. Number of dynamic objects                : 11
  83. Bed channel count                        : 1 channel
  84. Bed channel configuration                : LFE

  85. Audio #2
  86. ID                                       : 4
  87. Format                                   : DTS XLL
  88. Format/Info                              : Digital Theater Systems
  89. Commercial name                          : DTS-HD Master Audio
  90. Codec ID                                 : A_DTS
  91. Duration                                 : 2 h 8 min
  92. Bit rate mode                            : Variable
  93. Bit rate                                 : 4 061 kb/s
  94. Channel(s)                               : 8 channels
  95. Channel layout                           : C L R LFE Lb Rb Lss Rss
  96. Sampling rate                            : 48.0 kHz
  97. Frame rate                               : 93.750 FPS (512 SPF)
  98. Bit depth                                : 24 bits
  99. Compression mode                         : Lossless
  100. Stream size                              : 3.63 GiB (6%)
  101. Title                                    : Terminator.Dark.Fate.2019.2160p.BluRay.REMUX.HEVC.DTS-HD.MA.TrueHD.7.1.Atmos-FGT
  102. Language                                 : English
  103. Default                                  : No
  104. Forced                                   : No

  105. Audio #3
  106. ID                                       : 5
  107. Format                                   : AC-3
  108. Format/Info                              : Audio Coding 3
  109. Commercial name                          : Dolby Digital
  110. Codec ID                                 : A_AC3
  111. Duration                                 : 2 h 8 min
  112. Bit rate mode                            : Constant
  113. Bit rate                                 : 640 kb/s
  114. Channel(s)                               : 6 channels
  115. Channel layout                           : L R C LFE Ls Rs
  116. Sampling rate                            : 48.0 kHz
  117. Frame rate                               : 31.250 FPS (1536 SPF)
  118. Bit depth                                : 16 bits
  119. Compression mode                         : Lossy
  120. Stream size                              : 586 MiB (1%)
  121. Title                                    : Terminator.Dark.Fate.2019.2160p.BluRay.REMUX.HEVC.DTS-HD.MA.TrueHD.7.1.Atmos-FGT
  122. Language                                 : English
  123. Service kind                             : Complete Main
  124. Default                                  : No
  125. Forced                                   : No

  126. Audio #4
  127. ID                                       : 6
  128. Format                                   : AC-3
  129. Format/Info                              : Audio Coding 3
  130. Commercial name                          : Dolby Digital
  131. Codec ID                                 : A_AC3
  132. Duration                                 : 2 h 8 min
  133. Bit rate mode                            : Constant
  134. Bit rate                                 : 640 kb/s
  135. Channel(s)                               : 6 channels
  136. Channel layout                           : L R C LFE Ls Rs
  137. Sampling rate                            : 48.0 kHz
  138. Frame rate                               : 31.250 FPS (1536 SPF)
  139. Bit depth                                : 16 bits
  140. Compression mode                         : Lossy
  141. Stream size                              : 586 MiB (1%)
  142. Title                                    : Terminator.Dark.Fate.2019.2160p.BluRay.REMUX.HEVC.DTS-HD.MA.TrueHD.7.1.Atmos-FGT
  143. Language                                 : English
  144. Service kind                             : Complete Main
  145. Default                                  : No
  146. Forced                                   : No

  147. Audio #5
  148. ID                                       : 7
  149. Format                                   : AC-3
  150. Format/Info                              : Audio Coding 3
  151. Commercial name                          : Dolby Digital
  152. Codec ID                                 : A_AC3
  153. Duration                                 : 2 h 8 min
  154. Bit rate mode                            : Constant
  155. Bit rate                                 : 640 kb/s
  156. Channel(s)                               : 6 channels
  157. Channel layout                           : L R C LFE Ls Rs
  158. Sampling rate                            : 48.0 kHz
  159. Frame rate                               : 31.250 FPS (1536 SPF)
  160. Bit depth                                : 16 bits
  161. Compression mode                         : Lossy
  162. Stream size                              : 586 MiB (1%)
  163. Title                                    : Terminator.Dark.Fate.2019.2160p.BluRay.REMUX.HEVC.DTS-HD.MA.TrueHD.7.1.Atmos-FGT
  164. Language                                 : Spanish
  165. Service kind                             : Complete Main
  166. Default                                  : No
  167. Forced                                   : No

  168. Audio #6
  169. ID                                       : 8
  170. Format                                   : AC-3
  171. Format/Info                              : Audio Coding 3
  172. Commercial name                          : Dolby Digital
  173. Codec ID                                 : A_AC3
  174. Duration                                 : 2 h 8 min
  175. Bit rate mode                            : Constant
  176. Bit rate                                 : 640 kb/s
  177. Channel(s)                               : 6 channels
  178. Channel layout                           : L R C LFE Ls Rs
  179. Sampling rate                            : 48.0 kHz
  180. Frame rate                               : 31.250 FPS (1536 SPF)
  181. Bit depth                                : 16 bits
  182. Compression mode                         : Lossy
  183. Stream size                              : 586 MiB (1%)
  184. Title                                    : Terminator.Dark.Fate.2019.2160p.BluRay.REMUX.HEVC.DTS-HD.MA.TrueHD.7.1.Atmos-FGT
  185. Language                                 : French
  186. Service kind                             : Complete Main
  187. Default                                  : No
  188. Forced                                   : No

  189. Text #1
  190. ID                                       : 9
  191. Format                                   : UTF-8
  192. Codec ID                                 : S_TEXT/UTF8
  193. Codec ID/Info                            : UTF-8 Plain Text
  194. Duration                                 : 1 h 57 min
  195. Bit rate                                 : 31 b/s
  196. Count of elements                        : 1078
  197. Stream size                              : 27.2 KiB (0%)
  198. Title                                    : English-SRT
  199. Language                                 : English
  200. Default                                  : Yes
  201. Forced                                   : No

  202. Text #2
  203. ID                                       : 10
  204. Format                                   : UTF-8
  205. Codec ID                                 : S_TEXT/UTF8
  206. Codec ID/Info                            : UTF-8 Plain Text
  207. Duration                                 : 1 h 57 min
  208. Bit rate                                 : 39 b/s
  209. Count of elements                        : 1387
  210. Stream size                              : 34.3 KiB (0%)
  211. Title                                    : English-SDH-SRT
  212. Language                                 : English
  213. Default                                  : No
  214. Forced                                   : No

  215. Text #3
  216. ID                                       : 11
  217. Format                                   : PGS
  218. Muxing mode                              : zlib
  219. Codec ID                                 : S_HDMV/PGS
  220. Codec ID/Info                            : Picture based subtitle format used on BDs/HD-DVDs
  221. Duration                                 : 1 h 57 min
  222. Bit rate                                 : 20.1 kb/s
  223. Count of elements                        : 2100
  224. Stream size                              : 16.9 MiB (0%)
  225. Title                                    : English-PGS
  226. Language                                 : English
  227. Default                                  : No
  228. Forced                                   : No

  229. Text #4
  230. ID                                       : 12
  231. Format                                   : PGS
  232. Muxing mode                              : zlib
  233. Codec ID                                 : S_HDMV/PGS
  234. Codec ID/Info                            : Picture based subtitle format used on BDs/HD-DVDs
  235. Duration                                 : 1 h 57 min
  236. Bit rate                                 : 27.3 kb/s
  237. Count of elements                        : 2778
  238. Stream size                              : 22.9 MiB (0%)
  239. Title                                    : English-SDH-PGS
  240. Language                                 : English
  241. Default                                  : No
  242. Forced                                   : No

  243. Text #5
  244. ID                                       : 13
  245. Format                                   : PGS
  246. Muxing mode                              : zlib
  247. Codec ID                                 : S_HDMV/PGS
  248. Codec ID/Info                            : Picture based subtitle format used on BDs/HD-DVDs
  249. Duration                                 : 2 h 7 min
  250. Bit rate                                 : 18.3 kb/s
  251. Count of elements                        : 2150
  252. Stream size                              : 16.7 MiB (0%)
  253. Title                                    : Spanish-PGS
  254. Language                                 : Spanish
  255. Default                                  : No
  256. Forced                                   : No

  257. Text #6
  258. ID                                       : 14
  259. Format                                   : PGS
  260. Muxing mode                              : zlib
  261. Codec ID                                 : S_HDMV/PGS
  262. Codec ID/Info                            : Picture based subtitle format used on BDs/HD-DVDs
  263. Duration                                 : 2 h 5 min
  264. Bit rate                                 : 316 b/s
  265. Count of elements                        : 28
  266. Stream size                              : 290 KiB (0%)
  267. Title                                    : Spanish-FORCED-PGS
  268. Language                                 : Spanish
  269. Default                                  : No
  270. Forced                                   : No

  271. Text #7
  272. ID                                       : 15
  273. Format                                   : PGS
  274. Muxing mode                              : zlib
  275. Codec ID                                 : S_HDMV/PGS
  276. Codec ID/Info                            : Picture based subtitle format used on BDs/HD-DVDs
  277. Duration                                 : 2 h 7 min
  278. Bit rate                                 : 20.9 kb/s
  279. Count of elements                        : 2468
  280. Stream size                              : 19.2 MiB (0%)
  281. Title                                    : French-PGS
  282. Language                                 : French
  283. Default                                  : No
  284. Forced                                   : No

  285. Text #8
  286. ID                                       : 16
  287. Format                                   : PGS
  288. Muxing mode                              : zlib
  289. Codec ID                                 : S_HDMV/PGS
  290. Codec ID/Info                            : Picture based subtitle format used on BDs/HD-DVDs
  291. Duration                                 : 2 h 4 min
  292. Bit rate                                 : 2 000 b/s
  293. Count of elements                        : 264
  294. Stream size                              : 1.78 MiB (0%)
  295. Title                                    : French-FORCED-PGS
  296. Language                                 : French
  297. Default                                  : No
  298. Forced                                   : No

  299. Menu
  300. 00:00:00.000                             : en:Chapter 01
  301. 00:04:19.842                             : en:Chapter 02
  302. 00:07:48.926                             : en:Chapter 03
  303. 00:11:47.915                             : en:Chapter 04
  304. 00:16:56.306                             : en:Chapter 05
  305. 00:22:10.329                             : en:Chapter 06
  306. 00:29:00.613                             : en:Chapter 07
  307. 00:33:25.545                             : en:Chapter 08
  308. 00:41:35.493                             : en:Chapter 09
  309. 00:47:02.694                             : en:Chapter 10
  310. 00:53:08.935                             : en:Chapter 11
  311. 00:57:56.806                             : en:Chapter 12
  312. 01:05:02.690                             : en:Chapter 13
  313. 01:13:07.674                             : en:Chapter 14
  314. 01:20:46.049                             : en:Chapter 15
  315. 01:27:29.410                             : en:Chapter 16
  316. 01:32:48.563                             : en:Chapter 17
  317. 01:41:45.641                             : en:Chapter 18
  318. 01:49:35.318                             : en:Chapter 19
  319. 01:57:58.988                             : en:Chapter 20
復制代碼








本帖隱藏的下載地址需要VIP會員才可瀏覽,您需要升級才可瀏覽,點擊這里升級VIP
分享到:  QQ好友和群QQ好友和群
收藏收藏
VIP會員免費任意下載本站所有資源!---點擊開通
回復

使用道具 舉報

級別:初級觀眾 Lv.1

注冊時間
2020-1-25
最后登錄
2020-1-25
聽眾
1
收聽
0
主題
0
藍光幣
4 枚
貢獻
0 點
沙發
發表于 2020-1-25 13:38:34 | 只看該作者

這個帖子不回對不起自己!我想我是一天也不能離開中國高清電影網。
VIP會員免費任意下載本站所有資源!---點擊開通
回復

使用道具 舉報

 成長值: 250

級別:尊貴的會員

注冊時間
2020-1-27
最后登錄
2020-2-21
聽眾
1
收聽
0
主題
0
藍光幣
3 枚
貢獻
0 點
板凳
發表于 2020-1-27 20:36:38 | 只看該作者
謝謝樓主分享
VIP會員免費任意下載本站所有資源!---點擊開通
回復

使用道具 舉報

級別:普通觀眾 Lv.2

注冊時間
2018-5-10
最后登錄
2020-1-27
聽眾
11
收聽
0
主題
0
藍光幣
12 枚
貢獻
0 點
地板
發表于 2020-1-27 21:41:30 | 只看該作者
謝謝樓主分享
VIP會員免費任意下載本站所有資源!---點擊開通
回復

使用道具 舉報

懶得打字嘛,點擊右側快捷回復 【右側內容,后臺自定義】
您需要登錄后才可以回帖 登錄 | 立即注冊

本版積分規則

Archiver|手機版|小黑屋| 中國高清網 |網站地圖

GMT+8, 2020-2-21 23:27 , Processed in 0.284857 second(s), 37 queries .

Powered by HDchina X3.4

Copyright 2017-2019©HDchina.All right reserved

返回頂部 聯系我們
足球竞彩网