查看: 730|回復: 6
打印 上一主題 下一主題

[8bit.SDR] 終結者:黑暗命運 Terminator.Dark.Fate.2019.2160p.BluRay.x264.8bit.SDR.DTS-HD.MA.TrueHD.7.1.Atmos-SWTYBLZ 36.57GB

[復制鏈接]

 成長值: 4140

級別:資源管理組

注冊時間
2017-10-20
最后登錄
2020-2-21
聽眾
1
收聽
0
主題
92621
藍光幣
101326 枚
貢獻
16983 點
跳轉到指定樓層
樓主
發表于 2020-1-19 16:38:00 | 只看該作者 |只看大圖 回帖獎勵 |倒序瀏覽 |閱讀模式


譯  名 終結者:黑暗命運 / Terminator 6 / 未來戰士:黑暗命運(港) / 終結者2019 / 終結者6 / 終結者6:黑暗命運 / 終結者6:黑暗宿命 / 魔鬼終結者:黑暗宿命(臺)
片  名 Terminator: Dark Fate
年  代 2019
產  地 美國 / 中國大陸
類  別 動作 / 科幻 / 冒險
語  言 英語
上映日期 2019-10-23(法國) / 2019-11-01(美國/中國大陸)
IMDb評分  6.4/10 from 60728 users
IMDb鏈接  https://www.imdb.com/title/tt6450804
豆瓣評分 7.1/10 from 86363 users
豆瓣鏈接 https://movie.douban.com/subject/27109633/
片  長 128分鐘
導  演 蒂姆·米勒 Tim Miller
編  劇 詹姆斯·卡梅隆 James Cameron / 查爾斯·H·伊格里 Charles H. Eglee / 喬什·弗萊德曼 Josh Friedman / 大衛·S·高耶 David S. Goyer / 賈斯汀·羅德斯 Justin Rhodes / 比利·雷 Billy Ray / 蓋爾·安妮·赫德 Gale Anne Hurd
主  演 麥肯茲·戴維斯 Mackenzie Davis
       娜塔利婭·雷耶斯 Natalia Reyes
       琳達·漢密爾頓 Linda Hamilton
       阿諾·施瓦辛格 Arnold Schwarzenegger
       加布里埃爾·魯納 Gabriel Luna
       迪耶戈·博內塔 Diego Boneta
       恩里克·阿爾切 Enrique Arce
       特里斯坦·烏羅阿 Tristán Ulloa
       艾麗西婭·博拉切羅 Alicia Borrachero
       布雷特·阿扎爾 Brett Azar
       史蒂芬·克里 Steven Cree
       羅謝爾·尼爾 Rochelle Neil
       弗雷澤·杰姆斯 Fraser James
       克勞迪婭·特魯希略 Claudia Trujillo
       比約恩·弗賴貝格 Bj?rn Freiberg
       約翰·蓋蒂爾 John Gettier
       彼得·奧蒙德 Peter Ormond
       Lorna Brown
       Peter Schueller


標  簽 科幻 | 動作 | 美國 | 機器人 | 2019 | 情懷 | 冒險 | 劇情

簡  介  

  《終結者2:審判日》發生的27年后,由于未來天網派來T-800成功殺死年幼的約翰,以致令未來產生變化,一個全新進化的液態金屬終結者從未來派出,目的是追殺持有關鍵訊息的丹妮·拉莫斯、半生化人葛蕾絲和她的朋友。這使莎拉·康納以及成功殺死約翰的T800終結者前來幫助她們一行人,以共同為了人類的未來而戰。

獲獎情況  

  第6屆豆瓣電影年度榜單(2019)
  評分最高的科幻/動作片(提名)
  1. Video
  2. ID                                       : 1
  3. Format                                   : AVC
  4. Format/Info                              : Advanced Video Codec
  5. Format profile                           : [email protected]
  6. Format settings                          : CABAC / 5 Ref Frames
  7. Format settings, CABAC                   : Yes
  8. Format settings, Reference frames        : 5 frames
  9. Codec ID                                 : V_MPEG4/ISO/AVC
  10. Duration                                 : 2 h 8 min
  11. Bit rate                                 : 31.3 Mb/s
  12. Width                                    : 3 840 pixels
  13. Height                                   : 1 606 pixels
  14. Display aspect ratio                     : 2.40:1
  15. Frame rate mode                          : Constant
  16. Frame rate                               : 23.976 (24000/1001) FPS
  17. Color space                              : YUV
  18. Chroma subsampling                       : 4:2:0
  19. Bit depth                                : 8 bits
  20. Scan type                                : Progressive
  21. Bits/(Pixel*Frame)                       : 0.211
  22. Stream size                              : 28.0 GiB (77%)
  23. Title                                    : Terminator.Dark.Fate.2019.2160p.BluRay.x264.8bit.SDR.DTS-HD.MA.TrueHD.7.1.Atmos-SWTYBLZ
  24. Writing library                          : x264 core 157 r2935 545de2f
  25. Encoding settings                        : cabac=1 / ref=5 / deblock=1:-1:-1 / analyse=0x3:0x113 / me=umh / subme=10 / psy=1 / psy_rd=1.00:0.15 / mixed_ref=1 / me_range=48 / chroma_me=1 / trellis=2 / 8x8dct=1 / cqm=0 / deadzone=21,11 / fast_pskip=1 / chroma_qp_offset=-3 / threads=36 / lookahead_threads=3 / sliced_threads=0 / nr=0 / decimate=0 / interlaced=0 / bluray_compat=0 / constrained_intra=0 / bframes=3 / b_pyramid=2 / b_adapt=2 / b_bias=0 / direct=3 / weightb=1 / open_gop=0 / weightp=2 / keyint=250 / keyint_min=23 / scenecut=40 / intra_refresh=0 / rc_lookahead=50 / rc=crf / mbtree=1 / crf=18.0 / qcomp=0.60 / qpmin=0 / qpmax=69 / qpstep=4 / ip_ratio=1.40 / aq=1:1.00
  26. Default                                  : Yes
  27. Forced                                   : No

  28. Audio #1
  29. ID                                       : 2
  30. Format                                   : MLP FBA 16-ch
  31. Format/Info                              : Meridian Lossless Packing FBA with 16-channel presentation
  32. Commercial name                          : Dolby TrueHD with Dolby Atmos
  33. Codec ID                                 : A_TRUEHD
  34. Duration                                 : 2 h 8 min
  35. Bit rate mode                            : Variable
  36. Bit rate                                 : 4 634 kb/s
  37. Maximum bit rate                         : 8 247 kb/s
  38. Channel(s)                               : 8 channels
  39. Channel layout                           : L R C LFE Ls Rs Lb Rb
  40. Sampling rate                            : 48.0 kHz
  41. Frame rate                               : 1 200.000 FPS (40 SPF)
  42. Compression mode                         : Lossless
  43. Stream size                              : 4.15 GiB (11%)
  44. Title                                    : Terminator.Dark.Fate.2019.2160p.BluRay.x264.8bit.SDR.DTS-HD.MA.TrueHD.7.1.Atmos-SWTYBLZ
  45. Language                                 : English
  46. Default                                  : Yes
  47. Forced                                   : No
  48. Number of dynamic objects                : 11
  49. Bed channel count                        : 1 channel
  50. Bed channel configuration                : LFE

  51. Audio #2
  52. ID                                       : 3
  53. Format                                   : DTS XLL
  54. Format/Info                              : Digital Theater Systems
  55. Commercial name                          : DTS-HD Master Audio
  56. Codec ID                                 : A_DTS
  57. Duration                                 : 2 h 8 min
  58. Bit rate mode                            : Variable
  59. Bit rate                                 : 4 061 kb/s
  60. Channel(s)                               : 8 channels
  61. Channel layout                           : C L R LFE Lb Rb Lss Rss
  62. Sampling rate                            : 48.0 kHz
  63. Frame rate                               : 93.750 FPS (512 SPF)
  64. Bit depth                                : 24 bits
  65. Compression mode                         : Lossless
  66. Stream size                              : 3.63 GiB (10%)
  67. Title                                    : Terminator.Dark.Fate.2019.2160p.BluRay.x264.8bit.SDR.DTS-HD.MA.TrueHD.7.1.Atmos-SWTYBLZ
  68. Language                                 : English
  69. Default                                  : No
  70. Forced                                   : No

  71. Audio #3
  72. ID                                       : 4
  73. Format                                   : AC-3
  74. Format/Info                              : Audio Coding 3
  75. Commercial name                          : Dolby Digital
  76. Codec ID                                 : A_AC3
  77. Duration                                 : 2 h 8 min
  78. Bit rate mode                            : Constant
  79. Bit rate                                 : 640 kb/s
  80. Channel(s)                               : 6 channels
  81. Channel layout                           : L R C LFE Ls Rs
  82. Sampling rate                            : 48.0 kHz
  83. Frame rate                               : 31.250 FPS (1536 SPF)
  84. Compression mode                         : Lossy
  85. Stream size                              : 586 MiB (2%)
  86. Title                                    : Terminator.Dark.Fate.2019.2160p.BluRay.x264.8bit.SDR.DTS-HD.MA.TrueHD.7.1.Atmos-SWTYBLZ
  87. Language                                 : English
  88. Service kind                             : Complete Main
  89. Default                                  : No
  90. Forced                                   : No

  91. Text #1
  92. ID                                       : 5
  93. Format                                   : UTF-8
  94. Codec ID                                 : S_TEXT/UTF8
  95. Codec ID/Info                            : UTF-8 Plain Text
  96. Duration                                 : 1 h 57 min
  97. Bit rate                                 : 31 b/s
  98. Count of elements                        : 1078
  99. Stream size                              : 27.2 KiB (0%)
  100. Title                                    : English-SRT
  101. Language                                 : English
  102. Default                                  : Yes
  103. Forced                                   : No

  104. Text #2
  105. ID                                       : 6
  106. Format                                   : UTF-8
  107. Codec ID                                 : S_TEXT/UTF8
  108. Codec ID/Info                            : UTF-8 Plain Text
  109. Duration                                 : 1 h 57 min
  110. Bit rate                                 : 39 b/s
  111. Count of elements                        : 1387
  112. Stream size                              : 34.3 KiB (0%)
  113. Title                                    : English-SDH-SRT
  114. Language                                 : English
  115. Default                                  : No
  116. Forced                                   : No

  117. Text #3
  118. ID                                       : 7
  119. Format                                   : PGS
  120. Muxing mode                              : zlib
  121. Codec ID                                 : S_HDMV/PGS
  122. Codec ID/Info                            : Picture based subtitle format used on BDs/HD-DVDs
  123. Duration                                 : 1 h 57 min
  124. Bit rate                                 : 20.1 kb/s
  125. Count of elements                        : 2100
  126. Stream size                              : 16.9 MiB (0%)
  127. Title                                    : English-PGS
  128. Language                                 : English
  129. Default                                  : No
  130. Forced                                   : No

  131. Text #4
  132. ID                                       : 8
  133. Format                                   : PGS
  134. Muxing mode                              : zlib
  135. Codec ID                                 : S_HDMV/PGS
  136. Codec ID/Info                            : Picture based subtitle format used on BDs/HD-DVDs
  137. Duration                                 : 1 h 57 min
  138. Bit rate                                 : 27.3 kb/s
  139. Count of elements                        : 2778
  140. Stream size                              : 22.9 MiB (0%)
  141. Title                                    : English-SDH-PGS
  142. Language                                 : English
  143. Default                                  : No
  144. Forced                                   : No

  145. Text #5
  146. ID                                       : 9
  147. Format                                   : PGS
  148. Muxing mode                              : zlib
  149. Codec ID                                 : S_HDMV/PGS
  150. Codec ID/Info                            : Picture based subtitle format used on BDs/HD-DVDs
  151. Duration                                 : 2 h 7 min
  152. Bit rate                                 : 20.9 kb/s
  153. Count of elements                        : 2468
  154. Stream size                              : 19.2 MiB (0%)
  155. Title                                    : French-PGS
  156. Language                                 : French
  157. Default                                  : No
  158. Forced                                   : No

  159. Text #6
  160. ID                                       : 10
  161. Format                                   : PGS
  162. Muxing mode                              : zlib
  163. Codec ID                                 : S_HDMV/PGS
  164. Codec ID/Info                            : Picture based subtitle format used on BDs/HD-DVDs
  165. Duration                                 : 2 h 7 min
  166. Bit rate                                 : 18.3 kb/s
  167. Count of elements                        : 2150
  168. Stream size                              : 16.7 MiB (0%)
  169. Title                                    : Spanish-PGS
  170. Language                                 : Spanish
  171. Default                                  : No
  172. Forced                                   : No

  173. Menu
  174. 00:00:00.000                             : en:Chapter 01
  175. 00:04:19.843                             : en:Chapter 02
  176. 00:07:48.927                             : en:Chapter 03
  177. 00:11:47.916                             : en:Chapter 04
  178. 00:16:56.349                             : en:Chapter 05
  179. 00:22:10.663                             : en:Chapter 06
  180. 00:29:00.614                             : en:Chapter 07
  181. 00:33:25.754                             : en:Chapter 08
  182. 00:41:35.493                             : en:Chapter 09
  183. 00:47:02.695                             : en:Chapter 10
  184. 00:53:08.936                             : en:Chapter 11
  185. 00:57:56.807                             : en:Chapter 12
  186. 01:05:02.690                             : en:Chapter 13
  187. 01:13:07.967                             : en:Chapter 14
  188. 01:20:45.591                             : en:Chapter 15
  189. 01:27:29.744                             : en:Chapter 16
  190. 01:32:48.688                             : en:Chapter 17
  191. 01:41:45.850                             : en:Chapter 18
  192. 01:49:35.319                             : en:Chapter 19
  193. 01:57:58.613                             : en:Chapter 20
復制代碼








本帖隱藏的下載地址需要VIP會員才可瀏覽,您需要升級才可瀏覽,點擊這里升級VIP
分享到:  QQ好友和群QQ好友和群
收藏收藏
VIP會員免費任意下載本站所有資源!---點擊開通
回復

使用道具 舉報

級別:普通觀眾 Lv.2

注冊時間
2020-1-21
最后登錄
2020-2-21
聽眾
1
收聽
0
主題
0
藍光幣
75 枚
貢獻
0 點
QQ
沙發
發表于 2020-1-21 20:34:33 | 只看該作者
謝謝樓主分享,新人來報道了
VIP會員免費任意下載本站所有資源!---點擊開通
回復

使用道具 舉報

級別:初級觀眾 Lv.1

注冊時間
2020-1-28
最后登錄
2020-2-2
聽眾
1
收聽
0
主題
0
藍光幣
8 枚
貢獻
0 點
板凳
發表于 2020-2-2 21:58:29 | 只看該作者

其實我一直覺得樓主的品味不錯!呵呵!中國高清電影網太棒了!
VIP會員免費任意下載本站所有資源!---點擊開通
回復

使用道具 舉報

級別:普通觀眾 Lv.2

注冊時間
2018-12-25
最后登錄
2020-2-4
聽眾
9
收聽
0
主題
0
藍光幣
12 枚
貢獻
0 點
地板
發表于 2020-2-4 11:52:26 | 只看該作者
這個很經典 下來看看
VIP會員免費任意下載本站所有資源!---點擊開通
回復

使用道具 舉報

級別:初級觀眾 Lv.1

注冊時間
2020-1-9
最后登錄
2020-2-5
聽眾
1
收聽
0
主題
0
藍光幣
2 枚
貢獻
0 點
QQ
5#
發表于 2020-2-5 09:48:48 | 只看該作者

這個很經典 值得收藏,謝謝分享
VIP會員免費任意下載本站所有資源!---點擊開通
回復

使用道具 舉報

 成長值: 150

級別:尊貴的會員

注冊時間
2020-2-6
最后登錄
2020-2-20
聽眾
1
收聽
0
主題
0
藍光幣
0 枚
貢獻
0 點
6#
發表于 2020-2-6 20:07:46 | 只看該作者
謝謝樓主分享
VIP會員免費任意下載本站所有資源!---點擊開通
回復

使用道具 舉報

級別:初級觀眾 Lv.1

注冊時間
2020-2-5
最后登錄
2020-2-12
聽眾
1
收聽
0
主題
0
藍光幣
4 枚
貢獻
0 點
7#
發表于 2020-2-6 22:04:21 | 只看該作者
樓主發貼辛苦了,謝謝樓主分享!我覺得中國高清電影網是注冊對了!
VIP會員免費任意下載本站所有資源!---點擊開通
回復

使用道具 舉報

懶得打字嘛,點擊右側快捷回復 【右側內容,后臺自定義】
您需要登錄后才可以回帖 登錄 | 立即注冊

本版積分規則

Archiver|手機版|小黑屋| 中國高清網 |網站地圖

GMT+8, 2020-2-21 22:33 , Processed in 0.183664 second(s), 38 queries .

Powered by HDchina X3.4

Copyright 2017-2019©HDchina.All right reserved

返回頂部 聯系我們
足球竞彩网