查看: 565|回復: 1
打印 上一主題 下一主題

[2160p-WEB] 你從未在此 You.Were.Never.Really.Here.2017.2160p.AMZN.WEBRip.DDP5.1.x264-AJP69 17.87GB

[復制鏈接]

 成長值: 4140

級別:資源管理組

注冊時間
2017-10-20
最后登錄
2020-2-21
聽眾
1
收聽
0
主題
92621
藍光幣
101356 枚
貢獻
16983 點
跳轉到指定樓層
樓主
發表于 2020-1-19 16:38:57 | 只看該作者 |只看大圖 回帖獎勵 |倒序瀏覽 |閱讀模式


譯  名 你從未在此 / A Beautiful Day / 你從未真正停駐 / 失控救援(臺) / 獨行煞星(港) / 身不在場
片  名 You Were Never Really Here
年  代 2017
產  地 英國 / 法國 / 美國
類  別 劇情 / 懸疑 / 驚悚
語  言 英語
上映日期 2017-05-27(戛納電影節) / 2018-03-09(英國)
IMDb評分  6.8/10 from 85584 users
IMDb鏈接  https://www.imdb.com/title/tt5742374
豆瓣評分 6.9/10 from 11591 users
豆瓣鏈接 https://movie.douban.com/subject/26791455/
片  長 89分鐘
導  演 琳恩·拉姆塞 Lynne Ramsay
編  劇 琳恩·拉姆塞 Lynne Ramsay / 喬納森·埃梅斯 Jonathan Ames
主  演 杰昆·菲尼克斯 Joaquin Phoenix
       葉卡特琳娜·薩姆索諾夫 Ekaterina Samsonov
       亞歷桑德羅·尼沃拉 Alessandro Nivola
       亞歷克斯·馬內塔 Alex Manette
       約翰·道曼 John Doman
       朱迪思·羅伯茨 Judith Roberts
       麥迪遜·阿諾德 Madison Arnold
       德沃拉·納爾遜 Novella Nelson


標  簽 懸疑 | 美國 | 2017 | 犯罪 | 劇情 | 驚悚 | 英國 | 戛納

簡  介  

  染血斧頭、燃燒的女童照片、自封于膠袋一呼一吸的人頭,急速跳躍的凌亂影像,先聲奪人為沉郁躁動風格定調。亞祖(杰昆·菲尼克斯 飾)從退役軍人變身合約殺手,受雇為參議員從綁匪手中救回被賣當娼的愛女,不惜一切以暴易暴,殺出重圍救人自救。林恩·拉姆塞繼《凱文怎么了》(2011)后再帶來暴力驚慄的強烈沖擊,猶如從馬丁·斯科塞斯《出租車司機》(1976)的倒后鏡,近距離凝視駕駛座上杰昆·菲尼克斯的滿臉于思,逐步揭開沉默背后壓抑的童年創傷,與紐約街頭的腐敗沉淪。本片獲第70屆戛納最佳男主角及最佳編劇獎。

獲獎情況  

  第70屆戛納電影節(2017)
  主競賽單元 金棕櫚獎(提名) 琳恩·拉姆塞
  主競賽單元 最佳編劇 琳恩·拉姆塞
  主競賽單元 最佳男演員 華金·菲尼克斯

  第72屆英國電影學院獎(2019)
  電影獎 最佳英國影片(提名)

  第90屆美國國家評論協會獎(2018)
  十佳獨立電影

  第34屆美國獨立精神獎(2019)
  最佳影片(提名)
  最佳導演(提名) 琳恩·拉姆塞
  最佳男主角(提名) 華金·菲尼克斯
  最佳剪輯

  第21屆英國獨立電影獎(2018)
  最佳英國獨立電影(提名)
  最佳導演(提名) 琳恩·拉姆塞
  最佳編劇(提名) 琳恩·拉姆塞
  最佳男主角(提名) 華金·菲尼克斯
  最佳攝影(提名)
  最佳剪輯(提名)
  最佳音樂
  最佳音效

  第39屆倫敦影評人協會獎(2019)
  年度電影(提名)
  年度導演(提名) 琳恩·拉姆塞
  年度英國/愛爾蘭電影(提名)
  年度男主角(提名) 華金·菲尼克斯
  技術成就獎(提名) 喬·比尼

  第39屆波士頓影評人協會獎(2018)
  最佳導演 琳恩·拉姆塞
  最佳音樂(提名)

  第31屆芝加哥影評人協會獎(2018)
  最佳導演(提名) 琳恩·拉姆塞
  最佳男主角(提名) 華金·菲尼克斯
  最佳剪輯(提名) 喬·比尼
  最佳原創配樂(提名) 強尼·格林伍德

  第22屆美國在線影評人協會獎(2019)
  最佳影片(提名)
  最佳導演(提名) 琳恩·拉姆塞
  最佳男主角(提名) 華金·菲尼克斯

  第5屆豆瓣電影年度榜單(2018)
  年度電影原聲(提名)
  1. Video
  2. ID                                       : 1
  3. Format                                   : AVC
  4. Format/Info                              : Advanced Video Codec
  5. Format profile                           : [email protected]
  6. Format settings                          : CABAC / 7 Ref Frames
  7. Format settings, CABAC                   : Yes
  8. Format settings, Reference frames        : 7 frames
  9. Codec ID                                 : V_MPEG4/ISO/AVC
  10. Duration                                 : 1 h 29 min
  11. Bit rate                                 : 27.9 Mb/s
  12. Width                                    : 3 840 pixels
  13. Height                                   : 1 600 pixels
  14. Display aspect ratio                     : 2.40:1
  15. Original display aspect ratio            : 2.40:1
  16. Frame rate mode                          : Constant
  17. Frame rate                               : 23.976 (24000/1001) FPS
  18. Color space                              : YUV
  19. Chroma subsampling                       : 4:2:0
  20. Bit depth                                : 8 bits
  21. Scan type                                : Progressive
  22. Bits/(Pixel*Frame)                       : 0.190
  23. Stream size                              : 17.5 GiB (98%)
  24. Writing library                          : x264 core 155 r2901 7d0ff22
  25. Encoding settings                        : cabac=1 / ref=7 / deblock=1:-3:-3 / analyse=0x3:0x133 / me=umh / subme=10 / psy=1 / psy_rd=1.00:0.00 / mixed_ref=1 / me_range=48 / chroma_me=1 / trellis=2 / 8x8dct=1 / cqm=0 / deadzone=21,11 / fast_pskip=0 / chroma_qp_offset=-2 / threads=12 / lookahead_threads=2 / sliced_threads=0 / nr=0 / decimate=0 / interlaced=0 / bluray_compat=0 / constrained_intra=0 / bframes=8 / b_pyramid=2 / b_adapt=2 / b_bias=0 / direct=3 / weightb=1 / open_gop=0 / weightp=2 / keyint=250 / keyint_min=23 / scenecut=40 / intra_refresh=0 / rc=crf / mbtree=0 / crf=17.0 / qcomp=0.60 / qpmin=0 / qpmax=69 / qpstep=4 / ip_ratio=1.40 / pb_ratio=1.30 / aq=3:0.70
  26. Default                                  : Yes
  27. Forced                                   : No

  28. Audio
  29. ID                                       : 2
  30. Format                                   : E-AC-3
  31. Format/Info                              : Enhanced AC-3
  32. Commercial name                          : Dolby Digital Plus
  33. Codec ID                                 : A_EAC3
  34. Duration                                 : 1 h 29 min
  35. Bit rate mode                            : Constant
  36. Bit rate                                 : 640 kb/s
  37. Channel(s)                               : 6 channels
  38. Channel layout                           : L R C LFE Ls Rs
  39. Sampling rate                            : 48.0 kHz
  40. Frame rate                               : 31.250 FPS (1536 SPF)
  41. Compression mode                         : Lossy
  42. Stream size                              : 410 MiB (2%)
  43. Language                                 : English
  44. Service kind                             : Complete Main
  45. Default                                  : Yes
  46. Forced                                   : No

  47. Text #1
  48. ID                                       : 3
  49. Format                                   : UTF-8
  50. Codec ID                                 : S_TEXT/UTF8
  51. Codec ID/Info                            : UTF-8 Plain Text
  52. Duration                                 : 1 h 20 min
  53. Bit rate                                 : 24 b/s
  54. Count of elements                        : 560
  55. Stream size                              : 14.6 KiB (0%)
  56. Language                                 : English
  57. Default                                  : No
  58. Forced                                   : No

  59. Text #2
  60. ID                                       : 4
  61. Format                                   : UTF-8
  62. Codec ID                                 : S_TEXT/UTF8
  63. Codec ID/Info                            : UTF-8 Plain Text
  64. Duration                                 : 1 h 28 min
  65. Bit rate                                 : 31 b/s
  66. Count of elements                        : 855
  67. Stream size                              : 20.4 KiB (0%)
  68. Title                                    : SDH
  69. Language                                 : English
  70. Default                                  : No
  71. Forced                                   : No

  72. Menu
  73. 00:00:00.000                             : en:Studios Logos
  74. 00:01:22.000                             : en:Joe leaves the hotel
  75. 00:06:27.000                             : en:Title Sequence
  76. 00:06:48.000                             : en:Joe put his mom to bed
  77. 00:13:15.000                             : en:Joe gets his money
  78. 00:16:53.000                             : en:Joe cleans his mom's fridge
  79. 00:19:42.000                             : en:John has a job for Joe
  80. 00:22:59.000                             : en:Joe meets Senator Votto and learns about the missing child
  81. 00:26:47.000                             : en:Joe has unstable emotions
  82. 00:31:56.000                             : en:Joe waits for someone
  83. 00:36:22.000                             : en:Joe enters the building to rescue Nina
  84. 00:42:30.000                             : en:Joe takes Nina to a hotel
  85. 00:46:46.000                             : en:Joe tries to call John
  86. 00:48:47.000                             : en:Everybody is in danger
  87. 00:53:24.000                             : en:Joe is back to his house and looks for his mother
  88. 01:01:17.000                             : en:Goodbye
  89. 01:06:42.000                             : en:Joe wants to find Senator Williams
  90. 01:09:52.000                             : en:Joe breaks into Senator Williams' house
  91. 01:14:10.000                             : en:Joe finds out what happened
  92. 01:18:10.000                             : en:It's a beautiful day
  93. 01:21:54.000                             : en:End Credits
復制代碼








本帖隱藏的下載地址需要VIP會員才可瀏覽,您需要升級才可瀏覽,點擊這里升級VIP
分享到:  QQ好友和群QQ好友和群
收藏收藏
VIP會員免費任意下載本站所有資源!---點擊開通
回復

使用道具 舉報

級別:初級觀眾 Lv.1

注冊時間
2020-1-13
最后登錄
2020-1-29
聽眾
1
收聽
0
主題
0
藍光幣
7 枚
貢獻
0 點
沙發
發表于 2020-1-21 23:27:44 | 只看該作者
樓主發貼辛苦了,謝謝樓主分享!我覺得中國高清電影網是注冊對了!
VIP會員免費任意下載本站所有資源!---點擊開通
回復

使用道具 舉報

懶得打字嘛,點擊右側快捷回復 【右側內容,后臺自定義】
您需要登錄后才可以回帖 登錄 | 立即注冊

本版積分規則

Archiver|手機版|小黑屋| 中國高清網 |網站地圖

GMT+8, 2020-2-21 23:23 , Processed in 0.347174 second(s), 37 queries .

Powered by HDchina X3.4

Copyright 2017-2019©HDchina.All right reserved

返回頂部 聯系我們
足球竞彩网