查看: 683|回復: 2
打印 上一主題 下一主題

[2160p-WEB] 洛杉磯之戰 Battle.Los.Angeles.2011.2160p.AMZN.WEBRip.DDP5.1.x264-AJP69 38.72GB

[復制鏈接]

 成長值: 4150

級別:資源管理組

注冊時間
2017-10-20
最后登錄
2020-2-21
聽眾
1
收聽
0
主題
92635
藍光幣
101382 枚
貢獻
16997 點
跳轉到指定樓層
樓主
發表于 2020-1-19 16:40:16 | 只看該作者 |只看大圖 回帖獎勵 |倒序瀏覽 |閱讀模式


譯  名 洛杉磯之戰 / World Invasion: Battle LA / 世界異戰(臺) / 全球入侵:洛杉磯之戰 / 異形侵略戰(港) / 洛城殺場
片  名 Battle: Los Angeles
年  代 2011
產  地 美國
類  別 動作 / 科幻
語  言 英語
上映日期 2011-03-11(美國) / 2011-03-18(中國大陸)
IMDb評分  5.7/10 from 169270 users
IMDb鏈接  https://www.imdb.com/title/tt1217613
豆瓣評分 6.1/10 from 94392 users
豆瓣鏈接 https://movie.douban.com/subject/3041264/
片  長 116分鐘
導  演 喬納森·理貝斯曼 Jonathan Liebesman
編  劇 Christopher Bertolini
主  演 艾倫·艾克哈特 Aaron Eckhart
       米歇爾·羅德里格茲 Michelle Rodriguez
       拉蒙·羅德里格茲 Ramon Rodriguez
       布麗姬·穆娜 Bridget Moynahan
       邁克爾·佩納 Michael Pe?a
       威爾·羅斯海爾 Will Rothhaar
       科里·哈德里克 Cory Hardrict
       Ne-Yo


標  簽 科幻 | 美國 | 戰爭 | 災難 | 洛杉磯之戰 | 美國電影 | 2011 | 動作

簡  介  

  2011年夏天,無數枚隕石墜落地球,竟導致12個國家的沿海城市系數毀滅。原來隕石實則有一群神秘的外星人操縱。外星人憑借隕石著陸地球,展開殘酷無情的屠殺和破壞。作為世界上的頭號超級大國,美國自然也無法避免這場災難,隨著入侵者的則多,美國只有西太平洋的洛杉磯暫未淪陷。海軍陸戰隊中士麥克·納茲(艾倫·艾克哈特 Aaron Eckhart 飾)受命編入威廉姆·馬丁內斯中尉(拉蒙·羅德里格茲 Ramon Rodriguez 飾)的小分隊,準備與外星人展開殊死搏殺。
  適值此時,外星入侵者成功登陸,并殺入人口稠密的圣莫尼卡區。軍方決定誘敵深入,再對敵人施以空中打擊。為了營救無辜,納茲和馬丁內斯的小分隊義無反顧沖了進去……

獲獎情況  

  第2屆豆瓣電影鑫像獎(2012)
  豆渣單元 最渣導演(外語)(提名) 喬納森·里貝斯曼
  1. Video
  2. ID                                       : 1
  3. Format                                   : AVC
  4. Format/Info                              : Advanced Video Codec
  5. Format profile                           : [email protected]
  6. Format settings                          : CABAC / 7 Ref Frames
  7. Format settings, CABAC                   : Yes
  8. Format settings, Reference frames        : 7 frames
  9. Codec ID                                 : V_MPEG4/ISO/AVC
  10. Duration                                 : 1 h 56 min
  11. Bit rate                                 : 47.0 Mb/s
  12. Width                                    : 3 840 pixels
  13. Height                                   : 1 606 pixels
  14. Display aspect ratio                     : 2.40:1
  15. Frame rate mode                          : Constant
  16. Frame rate                               : 23.976 (24000/1001) FPS
  17. Color space                              : YUV
  18. Chroma subsampling                       : 4:2:0
  19. Bit depth                                : 8 bits
  20. Scan type                                : Progressive
  21. Bits/(Pixel*Frame)                       : 0.318
  22. Stream size                              : 38.2 GiB (99%)
  23. Writing library                          : x264 core 158 r2984 3759fcb
  24. Encoding settings                        : cabac=1 / ref=7 / deblock=1:-3:-3 / analyse=0x3:0x133 / me=umh / subme=10 / psy=1 / psy_rd=1.00:0.00 / mixed_ref=1 / me_range=48 / chroma_me=1 / trellis=2 / 8x8dct=1 / cqm=0 / deadzone=21,11 / fast_pskip=0 / chroma_qp_offset=-2 / threads=24 / lookahead_threads=4 / sliced_threads=0 / nr=0 / decimate=0 / interlaced=0 / bluray_compat=0 / constrained_intra=0 / bframes=8 / b_pyramid=2 / b_adapt=2 / b_bias=0 / direct=3 / weightb=1 / open_gop=0 / weightp=2 / keyint=250 / keyint_min=23 / scenecut=40 / intra_refresh=0 / rc=crf / mbtree=0 / crf=17.0 / qcomp=0.60 / qpmin=0 / qpmax=69 / qpstep=4 / ip_ratio=1.30 / pb_ratio=1.20 / aq=3:0.80
  25. Default                                  : Yes
  26. Forced                                   : No

  27. Audio
  28. ID                                       : 2
  29. Format                                   : E-AC-3
  30. Format/Info                              : Enhanced AC-3
  31. Commercial name                          : Dolby Digital Plus
  32. Codec ID                                 : A_EAC3
  33. Duration                                 : 1 h 56 min
  34. Bit rate mode                            : Constant
  35. Bit rate                                 : 640 kb/s
  36. Channel(s)                               : 6 channels
  37. Channel layout                           : L R C LFE Ls Rs
  38. Sampling rate                            : 48.0 kHz
  39. Frame rate                               : 31.250 FPS (1536 SPF)
  40. Compression mode                         : Lossy
  41. Stream size                              : 532 MiB (1%)
  42. Language                                 : English
  43. Service kind                             : Complete Main
  44. Default                                  : Yes
  45. Forced                                   : No

  46. Text #1
  47. ID                                       : 3
  48. Format                                   : UTF-8
  49. Codec ID                                 : S_TEXT/UTF8
  50. Codec ID/Info                            : UTF-8 Plain Text
  51. Duration                                 : 1 h 50 min
  52. Bit rate                                 : 66 b/s
  53. Count of elements                        : 1495
  54. Stream size                              : 54.1 KiB (0%)
  55. Language                                 : English
  56. Default                                  : No
  57. Forced                                   : No

  58. Text #2
  59. ID                                       : 4
  60. Format                                   : UTF-8
  61. Codec ID                                 : S_TEXT/UTF8
  62. Codec ID/Info                            : UTF-8 Plain Text
  63. Duration                                 : 1 h 51 min
  64. Bit rate                                 : 68 b/s
  65. Count of elements                        : 1601
  66. Stream size                              : 55.7 KiB (0%)
  67. Title                                    : SDH
  68. Language                                 : English
  69. Default                                  : No
  70. Forced                                   : No

  71. Menu
  72. 00:00:00.000                             : en:Studio Logos
  73. 00:00:34.000                             : en:The world is under attack, Title Sequence
  74. 00:02:14.000                             : en:Michael works out
  75. 00:03:58.000                             : en:John talks to Michael about retiring
  76. 00:05:59.000                             : en:Nick and Kevin sample flowers
  77. 00:07:44.000                             : en:Peter sees a psychiatrist and Jason visits his brothers grave
  78. 00:09:36.000                             : en:Soldiers drink and hit golf balls
  79. 00:11:02.000                             : en:Martinez says goodbye to his wife
  80. 00:11:50.000                             : en:Michael is brought back to duty
  81. 00:14:20.000                             : en:The troops talk about Michael's past
  82. 00:17:07.000                             : en:The troops watch news coverage of the attacks
  83. 00:18:23.000                             : en:The troops head out to battle
  84. 00:22:25.000                             : en:Ritchie gives the mission briefing
  85. 00:25:37.000                             : en:The platoon is blinded by debris
  86. 00:27:55.000                             : en:The platoon is attacked and boxed in
  87. 00:30:43.000                             : en:The platoon takes cover inside a house
  88. 00:32:02.000                             : en:Shaun attempts to reunite with the platoon
  89. 00:35:21.000                             : en:Elena and Richard join William's platoon
  90. 00:38:16.000                             : en:The platoon reaches the police station and searches for surviving civilians
  91. 00:41:46.000                             : en:William commands troops to find a way out
  92. 00:44:58.000                             : en:Peter looks for way out
  93. 00:47:59.000                             : en:An injured alien is experimented on while Nick and Kevin secure the bus
  94. 00:52:08.000                             : en:Michael figures out the aliens weakness
  95. 00:54:39.000                             : en:The platoon is ambushed by alien spaceships
  96. 00:58:34.000                             : en:The platoon celebrates Michael's heroics
  97. 01:02:06.000                             : en:The platoon finds the freeway route destroyed
  98. 01:06:01.000                             : en:Alien tank attacks as troops lower the civilians to saftey
  99. 01:09:34.000                             : en:William asks to be left and gives Michael a note for his wife
  100. 01:12:27.000                             : en:Michael patches up Joe
  101. 01:15:04.000                             : en:Michael and Elena determine their target
  102. 01:17:52.000                             : en:The platoon makes it to a destroyed base
  103. 01:20:31.000                             : en:Michael promises to protect Hector
  104. 01:23:41.000                             : en:Michael stands up to Jason regarding his past
  105. 01:27:07.000                             : en:The platoon makes their way to extraction point
  106. 01:30:10.000                             : en:The platoon and civilians are extracted
  107. 01:34:31.000                             : en:Troops prepare to take down the power source
  108. 01:35:46.000                             : en:Troops make their way to the alien power source
  109. 01:37:58.000                             : en:The troops split up to request an air strike
  110. 01:39:44.000                             : en:Air support is requested and the platoon fights to survive
  111. 01:43:13.000                             : en:The platoon assails the evacuating power source
  112. 01:47:14.000                             : en:Aliens retreat and while the troops head out to fight again
  113. 01:51:08.000                             : en:End Credits
復制代碼








本帖隱藏的下載地址需要VIP會員才可瀏覽,您需要升級才可瀏覽,點擊這里升級VIP
分享到:  QQ好友和群QQ好友和群
收藏收藏
VIP會員免費任意下載本站所有資源!---點擊開通
回復

使用道具 舉報

級別:普通觀眾 Lv.2

注冊時間
2018-11-23
最后登錄
2020-2-21
聽眾
9
收聽
0
主題
0
藍光幣
21 枚
貢獻
0 點
沙發
發表于 昨天 09:52 | 只看該作者
雖然不是大片,但還是很不錯的科幻片,支持。多謝分享
VIP會員免費任意下載本站所有資源!---點擊開通
回復

使用道具 舉報

級別:普通觀眾 Lv.2

注冊時間
2020-2-7
最后登錄
2020-2-21
聽眾
1
收聽
0
主題
0
藍光幣
17 枚
貢獻
0 點
QQ
板凳
發表于 昨天 11:13 | 只看該作者

樓主太厲害了!樓主,電影應該很好看我覺得中國高清電影網真是個好地方!
VIP會員免費任意下載本站所有資源!---點擊開通
回復

使用道具 舉報

懶得打字嘛,點擊右側快捷回復 【右側內容,后臺自定義】
您需要登錄后才可以回帖 登錄 | 立即注冊

本版積分規則

Archiver|手機版|小黑屋| 中國高清網 |網站地圖

GMT+8, 2020-2-22 00:11 , Processed in 0.209901 second(s), 38 queries .

Powered by HDchina X3.4

Copyright 2017-2019©HDchina.All right reserved

返回頂部 聯系我們
足球竞彩网