查看: 292|回復: 3
打印 上一主題 下一主題

[喜劇片] 糊涂偵探:裸體炸彈/糊涂情報員:裸體炸彈 The.Nude.Bomb.1980.1080p.BluRay.x264-PSYCHD 9.84GB

[復制鏈接]

 成長值: 4140

級別:資源管理組

注冊時間
2017-10-20
最后登錄
2020-2-21
聽眾
1
收聽
0
主題
92621
藍光幣
101342 枚
貢獻
16983 點
跳轉到指定樓層
樓主
發表于 2020-1-19 23:57:57 | 只看該作者 |只看大圖 回帖獎勵 |倒序瀏覽 |閱讀模式


譯  名 糊涂偵探:裸體炸彈 / 糊涂情報員:裸體炸彈 / 裸體炸彈
片  名 Get Smart: The Nude Bomb
年  代 1980
產  地 美國
類  別 喜劇 / 懸疑 / 犯罪
語  言 英語
上映日期 1980-05-09
IMDb評分  5.2/10 from 2815 users
IMDb鏈接  https://www.imdb.com/title/tt0081249
豆瓣評分 6.7/10 from 99 users
豆瓣鏈接 https://movie.douban.com/subject/1302561/
片  長 USA: 94 分鐘
導  演 克里夫·唐納 Clive Donner
編  劇 Arne Sultan / Bill Dana / 巴克 亨利 (Buck Henry)
主  演 Don Adams
       Sylvia Kristel
       Rhonda Fleming
       Hap Lawrence
       Joey Forman
       Dana Elcar
       Pamela Hensley


標  簽 喜劇 | 美國 | 糊涂偵探 | 美國電影 | 黑色幽默 | 老電影 | 1980s | 糊涂偵探電視劇

簡  介  

  An unknown terrorist has developed a new type of bomb that will destroy clothing, but leave people unharmed. Agent Maxwell Smart (this time without 99 or Hymie) is taken out of retirement and sent back into the field to track down who this madman is and put a stop to his plans.
  1. Video
  2. ID                                       : 1
  3. Format                                   : AVC
  4. Format/Info                              : Advanced Video Codec
  5. Format profile                           : [email protected]
  6. Format settings                          : CABAC / 4 Ref Frames
  7. Format settings, CABAC                   : Yes
  8. Format settings, Reference frames        : 4 frames
  9. Codec ID                                 : V_MPEG4/ISO/AVC
  10. Duration                                 : 1 h 33 min
  11. Bit rate                                 : 13.5 Mb/s
  12. Width                                    : 1 920 pixels
  13. Height                                   : 1 040 pixels
  14. Display aspect ratio                     : 1.85:1
  15. Frame rate mode                          : Constant
  16. Frame rate                               : 23.976 (24000/1001) FPS
  17. Color space                              : YUV
  18. Chroma subsampling                       : 4:2:0
  19. Bit depth                                : 8 bits
  20. Scan type                                : Progressive
  21. Bits/(Pixel*Frame)                       : 0.283
  22. Stream size                              : 8.65 GiB (88%)
  23. Writing library                          : x264 core 159 r2991 1771b55
  24. Encoding settings                        : cabac=1 / ref=4 / deblock=1:-3:-3 / analyse=0x3:0x113 / me=umh / subme=8 / psy=1 / psy_rd=1.15:0.00 / mixed_ref=1 / me_range=32 / chroma_me=1 / trellis=2 / 8x8dct=1 / cqm=0 / deadzone=21,11 / fast_pskip=1 / chroma_qp_offset=-2 / threads=32 / lookahead_threads=5 / sliced_threads=0 / nr=0 / decimate=1 / interlaced=0 / bluray_compat=0 / constrained_intra=0 / bframes=3 / b_pyramid=2 / b_adapt=2 / b_bias=0 / direct=3 / weightb=1 / open_gop=0 / weightp=2 / keyint=240 / keyint_min=24 / scenecut=40 / intra_refresh=0 / rc_lookahead=50 / rc=2pass / mbtree=1 / bitrate=13543 / ratetol=1.0 / qcomp=0.60 / qpmin=0 / qpmax=69 / qpstep=4 / cplxblur=20.0 / qblur=0.5 / ip_ratio=1.40 / aq=3:0.70
  25. Default                                  : Yes
  26. Forced                                   : No
  27. Statistics Tags Issue                    : no_variable_data 1970-01-01 00:00:00 / no_variable_data 2010-02-22 21:41:29
  28. FromStats_BitRate                        : 13540322
  29. FromStats_Duration                       : 01:33:33.608000000
  30. FromStats_FrameCount                     : 134592
  31. FromStats_StreamSize                     : 9501257913

  32. Audio
  33. ID                                       : 2
  34. Format                                   : DTS
  35. Format/Info                              : Digital Theater Systems
  36. Codec ID                                 : A_DTS
  37. Duration                                 : 1 h 33 min
  38. Bit rate mode                            : Constant
  39. Bit rate                                 : 1 509 kb/s
  40. Channel(s)                               : 2 channels
  41. Channel layout                           : L R
  42. Sampling rate                            : 48.0 kHz
  43. Frame rate                               : 93.750 FPS (512 SPF)
  44. Bit depth                                : 24 bits
  45. Compression mode                         : Lossy
  46. Stream size                              : 1 010 MiB (10%)
  47. Language                                 : English
  48. Default                                  : Yes
  49. Forced                                   : No
  50. Statistics Tags Issue                    : no_variable_data 1970-01-01 00:00:00 / no_variable_data 2010-02-22 21:41:29
  51. FromStats_BitRate                        : 1509000
  52. FromStats_Duration                       : 01:33:33.664000000
  53. FromStats_FrameCount                     : 526281
  54. FromStats_StreamSize                     : 1058877372

  55. Text
  56. ID                                       : 3
  57. Format                                   : UTF-8
  58. Codec ID                                 : S_TEXT/UTF8
  59. Codec ID/Info                            : UTF-8 Plain Text
  60. Language                                 : English
  61. Default                                  : No
  62. Forced                                   : No
  63. Statistics Tags Issue                    : no_variable_data 1970-01-01 00:00:00 / no_variable_data 2010-02-22 21:41:29
  64. FromStats_BitRate                        : 70
  65. FromStats_Duration                       : 01:33:08.791000000
  66. FromStats_FrameCount                     : 1619
  67. FromStats_StreamSize                     : 49007

  68. Menu
  69. 00:00:00.000                             : en:Chapter 01
  70. 00:09:16.556                             : en:Chapter 02
  71. 00:18:42.455                             : en:Chapter 03
  72. 00:27:06.875                             : en:Chapter 04
  73. 00:40:50.239                             : en:Chapter 05
  74. 00:52:50.793                             : en:Chapter 06
  75. 01:06:14.637                             : en:Chapter 07
  76. 01:18:32.166                             : en:Chapter 08
復制代碼








分享到:  QQ好友和群QQ好友和群
收藏收藏
VIP會員免費任意下載本站所有資源!---點擊開通
回復

使用道具 舉報

級別:榮升主角 Lv.5

注冊時間
2018-2-26
最后登錄
2020-2-20
聽眾
16
收聽
0
主題
0
藍光幣
226 枚
貢獻
0 點
沙發
發表于 2020-1-20 09:21:59 | 只看該作者

我看不錯噢 謝謝樓主!中國高清電影網越來越好!
VIP會員免費任意下載本站所有資源!---點擊開通
回復

使用道具 舉報

級別:初級觀眾 Lv.1

注冊時間
2020-1-20
最后登錄
2020-2-7
聽眾
1
收聽
0
主題
0
藍光幣
3 枚
貢獻
0 點
板凳
發表于 2020-1-20 09:42:47 | 只看該作者

這個帖子不回對不起自己!我想我是一天也不能離開中國高清電影網。
VIP會員免費任意下載本站所有資源!---點擊開通
回復

使用道具 舉報

級別:群眾演員 Lv.3

注冊時間
2019-12-6
最后登錄
2020-2-21
聽眾
1
收聽
0
主題
0
藍光幣
93 枚
貢獻
0 點
地板
發表于 2020-1-22 01:55:53 | 只看該作者
感謝樓主分享~
VIP會員免費任意下載本站所有資源!---點擊開通
回復

使用道具 舉報

懶得打字嘛,點擊右側快捷回復 【右側內容,后臺自定義】
您需要登錄后才可以回帖 登錄 | 立即注冊

本版積分規則

Archiver|手機版|小黑屋| 中國高清網 |網站地圖

GMT+8, 2020-2-21 23:07 , Processed in 0.220462 second(s), 36 queries .

Powered by HDchina X3.4

Copyright 2017-2019©HDchina.All right reserved

返回頂部 聯系我們
足球竞彩网