查看: 16524|回復: 174
打印 上一主題 下一主題

[10bit.HDR] 碟中諜6:全面瓦解/碟中諜6 Mission.Impossible.Fallout.2018.IMAX.2160p.BluRay.x265.10bit.HDR.DTS-HD.MA.TrueHD.7.1.Atmos-SWTYBLZ 52.92GB

  [復制鏈接]

 成長值: 4170

級別:資源管理組

注冊時間
2017-10-20
最后登錄
2020-2-23
聽眾
1
收聽
0
主題
92752
藍光幣
103121 枚
貢獻
17114 點
跳轉到指定樓層
樓主
發表于 2018-11-26 22:24:07 | 只看該作者 |只看大圖 回帖獎勵 |倒序瀏覽 |閱讀模式

◎譯  名 碟中諜6:全面瓦解 / 碟中諜6 / 不可能的任務:全面瓦解(臺) / 職業特工隊:叛逆之謎(港) / Mission: Impossible 6 / MI6
◎片  名 碟中諜6:全面瓦解 Mission: Impossible - Fallout
◎年  代 2018
◎國  家 美國
◎類  別 動作 / 驚悚 / 冒險
◎語  言 英語 / 法語
◎上映日期 2018-08-31(中國大陸) / 2018-07-27(美國)
◎IMDb評分  7.9/10 from 169,064 users
◎IMDb鏈接  http://www.imdb.com/title/tt4912910/
◎豆瓣評分 8.2/10 from 263318 users
◎豆瓣鏈接 https://movie.douban.com/subject/26336252/
◎片  長 147分鐘 / 148分鐘(中國大陸)
◎導  演 克里斯托弗·麥奎里
◎主  演 湯姆·克魯斯
      亨利·卡維爾
      文·瑞姆斯
      西蒙·佩吉
      麗貝卡·弗格森
      西恩·哈里斯
      安吉拉·貝塞特
      凡妮莎·柯比
      米歇爾·莫納漢
      韋斯·本特利
      費雷德里克·施密特
      亞歷克·鮑德溫
      楊亮
      克里斯托弗·瓊勒
      沃爾夫·布利策
      拉斐爾·瓊勒
      安德魯·卡扎納夫·平
      克里斯多夫·德·舒瓦西
      拉裴爾·德普雷
      讓·巴普蒂斯特·菲永
      馬克斯·蓋勒
      奧利維爾·體班德
      亞歷山大·普爾
      阿利克斯·貝納澤什
      喬伊·安沙
      維利貝·托皮奇
      格雷厄姆·??怂?br />       卡斯珀·菲利普森
      菲恩·喬利
      魯斯·貝恩
      奈杰爾·艾倫

◎簡  介 

  伊森·亨特(湯姆·克魯斯飾)和隊友們接到了追回三個大殺傷性核武器的任務。眼見任務馬上就能完成,但為了挽救其中一位隊友盧瑟(文·瑞姆斯飾)的生命,三個核武器被人趁機帶走。中情局負責人斯隆女士(安吉拉·貝塞特飾)調來她手下的得意猛將沃克(亨利·卡維爾飾),讓他盯著伊森·亨特完成追回核武器的任務。期間,女特工伊爾莎(麗貝卡·弗格森飾)突然出現,伊森·亨特發現,他要面對的并不只是恐怖分子,還有潛藏在政府部門的內鬼。


  1. Video
  2. ID                                       : 1
  3. Format                                   : HEVC
  4. Format/Info                              : High Efficiency Video Coding
  5. Commercial name                          : HDR10
  6. Format profile                           : Main [url=/cdn-cgi/l/email-protection][email protected][/url]@High
  7. Codec ID                                 : V_MPEGH/ISO/HEVC
  8. Duration                                 : 2 h 27 min
  9. Bit rate                                 : 41.1 Mb/s
  10. Width                                    : 3 840 pixels
  11. Height                                   : 2 026 pixels
  12. Display aspect ratio                     : 1.895
  13. Frame rate mode                          : Constant
  14. Frame rate                               : 23.976 (24000/1001) FPS
  15. Color space                              : YUV
  16. Chroma subsampling                       : 4:2:0 (Type 2)
  17. Bit depth                                : 10 bits
  18. Bits/(Pixel*Frame)                       : 0.220
  19. Stream size                              : 42.3 GiB (80%)
  20. Title                                    : Mission.Impossible.Fallout.2018.IMAX.2160p.BluRay.x265.10bit.HDR.DTS-HD.MA.TrueHD.7.1.Atmos-SWTYBLZ
  21. Writing library                          : x265 2.8+74-fd517ae68f93:[Windows][GCC 8.2.1][64 bit] 10bit
  22. Encoding settings                        : cpuid=1111039 / frame-threads=16 / numa-pools=24,24,24,24 / wpp / no-pmode / no-pme / no-psnr / no-ssim / log-level=2 / input-csp=1 / input-res=3840x2026 / interlace=0 / total-frames=0 / level-idc=51 / high-tier=1 / uhd-bd=0 / ref=3 / no-allow-non-conformance / repeat-headers / annexb / aud / hrd / info / hash=0 / no-temporal-layers / no-open-gop / min-keyint=1 / keyint=24 / gop-lookahead=0 / bframes=4 / b-adapt=2 / b-pyramid / bframe-bias=0 / rc-lookahead=25 / lookahead-slices=4 / scenecut=40 / radl=0 / no-intra-refresh / ctu=64 / min-cu-size=8 / no-rect / no-amp / max-tu-size=32 / tu-inter-depth=1 / tu-intra-depth=1 / limit-tu=0 / rdoq-level=0 / dynamic-rd=0.00 / no-ssim-rd / signhide / no-tskip / nr-intra=0 / nr-inter=0 / no-constrained-intra / strong-intra-smoothing / max-merge=2 / limit-refs=3 / no-limit-modes / me=1 / subme=2 / merange=57 / temporal-mvp / weightp / no-weightb / no-analyze-src-pics / deblock=0:0 / no-sao / no-sao-non-deblock / rd=3 / no-early-skip / rskip / no-fast-intra / no-tskip-fast / no-cu-lossless / no-b-intra / no-splitrd-skip / rdpenalty=0 / psy-rd=2.00 / psy-rdoq=0.00 / no-rd-refine / no-lossless / cbqpoffs=0 / crqpoffs=0 / rc=crf / crf=16.0 / qcomp=0.60 / qpstep=4 / stats-write=0 / stats-read=0 / vbv-maxrate=160000 / vbv-bufsize=160000 / vbv-init=0.9 / crf-max=0.0 / crf-min=0.0 / ipratio=1.40 / pbratio=1.30 / aq-mode=1 / aq-strength=1.00 / cutree / zone-count=0 / no-strict-cbr / qg-size=32 / no-rc-grain / qpmax=69 / qpmin=0 / no-const-vbv / sar=1 / overscan=0 / videoformat=5 / range=0 / colorprim=9 / transfer=16 / colormatrix=9 / chromaloc=1 / chromaloc-top=2 / chromaloc-bottom=2 / display-window=0 / master-display=G(13250,34500)B(7500,3000)R(34000,16000)WP(15635,16450)L(10000000,01) / max-cll=0,0 / min-luma=0 / max-luma=1023 / log2-max-poc-lsb=8 / vui-timing-info / vui-hrd-info / slices=1 / opt-qp-pps / opt-ref-list-length-pps / no-multi-pass-opt-rps / scenecut-bias=0.05 / no-opt-cu-delta-qp / no-aq-motion / hdr / hdr-opt / no-dhdr10-opt / no-idr-recovery-sei / analysis-reuse-level=5 / scale-factor=0 / refine-intra=0 / refine-inter=0 / refine-mv=0 / no-limit-sao / ctu-info=0 / no-lowpass-dct / refine-mv-type=0 / copy-pic=1 / max-ausize-factor=1.0 / no-dynamic-refine / no-single-sei
  23. Default                                  : Yes
  24. Forced                                   : No
  25. Color range                              : Limited
  26. Color primaries                          : BT.2020
  27. Transfer characteristics                 : PQ
  28. Matrix coefficients                      : BT.2020 non-constant
  29. Mastering display color primaries        : Display P3
  30. Mastering display luminance              : min: 0.0001 cd/m2, max: 1000 cd/m2

  31. Audio #1
  32. ID                                       : 2
  33. Format                                   : MLP FBA 16-ch
  34. Format/Info                              : Meridian Lossless Packing FBA with 16-channel presentation
  35. Commercial name                          : Dolby TrueHD with Dolby Atmos
  36. Codec ID                                 : A_TRUEHD
  37. Duration                                 : 2 h 27 min
  38. Bit rate mode                            : Variable
  39. Bit rate                                 : 5 026 kb/s
  40. Maximum bit rate                         : 8 175 kb/s
  41. Channel(s)                               : 8 channels
  42. Channel layout                           : L R C LFE Ls Rs Lb Rb
  43. Sampling rate                            : 48.0 kHz
  44. Frame rate                               : 1 200.000 FPS (40 SPF)
  45. Compression mode                         : Lossless
  46. Stream size                              : 5.17 GiB (10%)
  47. Title                                    : Mission.Impossible.Fallout.2018.IMAX.2160p.BluRay.x265.10bit.HDR.DTS-HD.MA.TrueHD.7.1.Atmos-SWTYBLZ
  48. Language                                 : English
  49. Default                                  : Yes
  50. Forced                                   : No
  51. Number of dynamic objects                : 11
  52. Bed channel count                        : 1 channel
  53. Bed channel configuration                : LFE

  54. Audio #2
  55. ID                                       : 3
  56. Format                                   : DTS XLL
  57. Format/Info                              : Digital Theater Systems
  58. Commercial name                          : DTS-HD Master Audio
  59. Codec ID                                 : A_DTS
  60. Duration                                 : 2 h 27 min
  61. Bit rate mode                            : Variable
  62. Bit rate                                 : 4 183 kb/s
  63. Channel(s)                               : 8 channels
  64. Channel layout                           : C L R LFE Lb Rb Lss Rss
  65. Sampling rate                            : 48.0 kHz
  66. Frame rate                               : 93.750 FPS (512 SPF)
  67. Bit depth                                : 24 bits
  68. Compression mode                         : Lossless
  69. Stream size                              : 4.31 GiB (8%)
  70. Title                                    : Mission.Impossible.Fallout.2018.IMAX.2160p.BluRay.x265.10bit.HDR.DTS-HD.MA.TrueHD.7.1.Atmos-SWTYBLZ
  71. Language                                 : English
  72. Default                                  : No
  73. Forced                                   : No

  74. Audio #3
  75. ID                                       : 4
  76. Format                                   : AC-3
  77. Format/Info                              : Audio Coding 3
  78. Commercial name                          : Dolby Digital
  79. Codec ID                                 : A_AC3
  80. Duration                                 : 2 h 27 min
  81. Bit rate mode                            : Constant
  82. Bit rate                                 : 640 kb/s
  83. Channel(s)                               : 6 channels
  84. Channel layout                           : L R C LFE Ls Rs
  85. Sampling rate                            : 48.0 kHz
  86. Frame rate                               : 31.250 FPS (1536 SPF)
  87. Bit depth                                : 16 bits
  88. Compression mode                         : Lossy
  89. Stream size                              : 675 MiB (1%)
  90. Title                                    : Mission.Impossible.Fallout.2018.IMAX.2160p.BluRay.x265.10bit.HDR.DTS-HD.MA.TrueHD.7.1.Atmos-SWTYBLZ
  91. Language                                 : English
  92. Service kind                             : Complete Main
  93. Default                                  : No
  94. Forced                                   : No

  95. Text #1
  96. ID                                       : 5
  97. Format                                   : UTF-8
  98. Codec ID                                 : S_TEXT/UTF8
  99. Codec ID/Info                            : UTF-8 Plain Text
  100. Duration                                 : 2 h 19 min
  101. Bit rate                                 : 46 b/s
  102. Count of elements                        : 1566
  103. Stream size                              : 47.1 KiB (0%)
  104. Title                                    : English-SRT
  105. Language                                 : English
  106. Default                                  : Yes
  107. Forced                                   : No

  108. Text #2
  109. ID                                       : 6
  110. Format                                   : UTF-8
  111. Codec ID                                 : S_TEXT/UTF8
  112. Codec ID/Info                            : UTF-8 Plain Text
  113. Duration                                 : 2 h 19 min
  114. Bit rate                                 : 52 b/s
  115. Count of elements                        : 1872
  116. Stream size                              : 53.7 KiB (0%)
  117. Title                                    : English-SDH-SRT
  118. Language                                 : English
  119. Default                                  : No
  120. Forced                                   : No

  121. Text #3
  122. ID                                       : 7
  123. Format                                   : PGS
  124. Muxing mode                              : zlib
  125. Codec ID                                 : S_HDMV/PGS
  126. Codec ID/Info                            : Picture based subtitle format used on BDs/HD-DVDs
  127. Duration                                 : 2 h 19 min
  128. Bit rate                                 : 28.4 kb/s
  129. Count of elements                        : 3111
  130. Stream size                              : 28.3 MiB (0%)
  131. Title                                    : English-PGS
  132. Language                                 : English
  133. Default                                  : No
  134. Forced                                   : No

  135. Text #4
  136. ID                                       : 8
  137. Format                                   : PGS
  138. Muxing mode                              : zlib
  139. Codec ID                                 : S_HDMV/PGS
  140. Codec ID/Info                            : Picture based subtitle format used on BDs/HD-DVDs
  141. Duration                                 : 2 h 19 min
  142. Bit rate                                 : 33.7 kb/s
  143. Count of elements                        : 3747
  144. Stream size                              : 33.5 MiB (0%)
  145. Title                                    : English-SDH-PGS
  146. Language                                 : English
  147. Default                                  : No
  148. Forced                                   : No

  149. Text #5
  150. ID                                       : 9
  151. Format                                   : PGS
  152. Muxing mode                              : zlib
  153. Codec ID                                 : S_HDMV/PGS
  154. Codec ID/Info                            : Picture based subtitle format used on BDs/HD-DVDs
  155. Duration                                 : 2 h 26 min
  156. Bit rate                                 : 23.6 kb/s
  157. Count of elements                        : 2225
  158. Stream size                              : 24.8 MiB (0%)
  159. Title                                    : Danish-PGS
  160. Language                                 : Danish
  161. Default                                  : No
  162. Forced                                   : No

  163. Text #6
  164. ID                                       : 10
  165. Format                                   : PGS
  166. Muxing mode                              : zlib
  167. Codec ID                                 : S_HDMV/PGS
  168. Codec ID/Info                            : Picture based subtitle format used on BDs/HD-DVDs
  169. Duration                                 : 2 h 26 min
  170. Bit rate                                 : 26.5 kb/s
  171. Count of elements                        : 2837
  172. Stream size                              : 27.8 MiB (0%)
  173. Title                                    : Spanish-PGS
  174. Language                                 : Spanish
  175. Default                                  : No
  176. Forced                                   : No

  177. Text #7
  178. ID                                       : 11
  179. Format                                   : PGS
  180. Muxing mode                              : zlib
  181. Codec ID                                 : S_HDMV/PGS
  182. Codec ID/Info                            : Picture based subtitle format used on BDs/HD-DVDs
  183. Duration                                 : 2 h 26 min
  184. Bit rate                                 : 25.7 kb/s
  185. Count of elements                        : 2790
  186. Stream size                              : 27.0 MiB (0%)
  187. Title                                    : Spanish-PGS
  188. Language                                 : Spanish
  189. Default                                  : No
  190. Forced                                   : No

  191. Text #8
  192. ID                                       : 12
  193. Format                                   : PGS
  194. Muxing mode                              : zlib
  195. Codec ID                                 : S_HDMV/PGS
  196. Codec ID/Info                            : Picture based subtitle format used on BDs/HD-DVDs
  197. Duration                                 : 2 h 26 min
  198. Bit rate                                 : 21.9 kb/s
  199. Count of elements                        : 2895
  200. Stream size                              : 23.0 MiB (0%)
  201. Title                                    : French-PGS
  202. Language                                 : French
  203. Default                                  : No
  204. Forced                                   : No

  205. Text #9
  206. ID                                       : 13
  207. Format                                   : PGS
  208. Muxing mode                              : zlib
  209. Codec ID                                 : S_HDMV/PGS
  210. Codec ID/Info                            : Picture based subtitle format used on BDs/HD-DVDs
  211. Duration                                 : 2 h 26 min
  212. Bit rate                                 : 27.1 kb/s
  213. Count of elements                        : 3335
  214. Stream size                              : 28.5 MiB (0%)
  215. Title                                    : French-PGS
  216. Language                                 : French
  217. Default                                  : No
  218. Forced                                   : No

  219. Text #10
  220. ID                                       : 14
  221. Format                                   : PGS
  222. Muxing mode                              : zlib
  223. Codec ID                                 : S_HDMV/PGS
  224. Codec ID/Info                            : Picture based subtitle format used on BDs/HD-DVDs
  225. Duration                                 : 2 h 26 min
  226. Bit rate                                 : 23.0 kb/s
  227. Count of elements                        : 2350
  228. Stream size                              : 24.2 MiB (0%)
  229. Title                                    : Dutch-PGS
  230. Language                                 : Dutch
  231. Default                                  : No
  232. Forced                                   : No

  233. Text #11
  234. ID                                       : 15
  235. Format                                   : PGS
  236. Muxing mode                              : zlib
  237. Codec ID                                 : S_HDMV/PGS
  238. Codec ID/Info                            : Picture based subtitle format used on BDs/HD-DVDs
  239. Duration                                 : 2 h 26 min
  240. Bit rate                                 : 23.5 kb/s
  241. Count of elements                        : 2780
  242. Stream size                              : 24.6 MiB (0%)
  243. Title                                    : Norwegian-PGS
  244. Language                                 : Norwegian
  245. Default                                  : No
  246. Forced                                   : No

  247. Text #12
  248. ID                                       : 16
  249. Format                                   : PGS
  250. Muxing mode                              : zlib
  251. Codec ID                                 : S_HDMV/PGS
  252. Codec ID/Info                            : Picture based subtitle format used on BDs/HD-DVDs
  253. Duration                                 : 2 h 26 min
  254. Bit rate                                 : 21.5 kb/s
  255. Count of elements                        : 2752
  256. Stream size                              : 22.6 MiB (0%)
  257. Title                                    : Portuguese-PGS
  258. Language                                 : Portuguese
  259. Default                                  : No
  260. Forced                                   : No

  261. Text #13
  262. ID                                       : 17
  263. Format                                   : PGS
  264. Muxing mode                              : zlib
  265. Codec ID                                 : S_HDMV/PGS
  266. Codec ID/Info                            : Picture based subtitle format used on BDs/HD-DVDs
  267. Duration                                 : 2 h 26 min
  268. Bit rate                                 : 24.7 kb/s
  269. Count of elements                        : 3148
  270. Stream size                              : 25.9 MiB (0%)
  271. Title                                    : Finnish-PGS
  272. Language                                 : Finnish
  273. Default                                  : No
  274. Forced                                   : No

  275. Text #14
  276. ID                                       : 18
  277. Format                                   : PGS
  278. Muxing mode                              : zlib
  279. Codec ID                                 : S_HDMV/PGS
  280. Codec ID/Info                            : Picture based subtitle format used on BDs/HD-DVDs
  281. Duration                                 : 2 h 26 min
  282. Bit rate                                 : 23.6 kb/s
  283. Count of elements                        : 2759
  284. Stream size                              : 24.7 MiB (0%)
  285. Title                                    : Swedish-PGS
  286. Language                                 : Swedish
  287. Default                                  : No
  288. Forced                                   : No

  289. Text #15
  290. ID                                       : 19
  291. Format                                   : PGS
  292. Muxing mode                              : zlib
  293. Codec ID                                 : S_HDMV/PGS
  294. Codec ID/Info                            : Picture based subtitle format used on BDs/HD-DVDs
  295. Duration                                 : 2 h 21 min
  296. Bit rate                                 : 39.9 kb/s
  297. Count of elements                        : 3662
  298. Stream size                              : 40.3 MiB (0%)
  299. Title                                    : English-PGS
  300. Language                                 : English
  301. Default                                  : No
  302. Forced                                   : No

  303. Text #16
  304. ID                                       : 20
  305. Format                                   : PGS
  306. Muxing mode                              : zlib
  307. Codec ID                                 : S_HDMV/PGS
  308. Codec ID/Info                            : Picture based subtitle format used on BDs/HD-DVDs
  309. Duration                                 : 2 h 27 min
  310. Bit rate                                 : 36.5 kb/s
  311. Count of elements                        : 3664
  312. Stream size                              : 38.5 MiB (0%)
  313. Title                                    : Spanish-PGS
  314. Language                                 : Spanish
  315. Default                                  : No
  316. Forced                                   : No

  317. Text #17
  318. ID                                       : 21
  319. Format                                   : PGS
  320. Muxing mode                              : zlib
  321. Codec ID                                 : S_HDMV/PGS
  322. Codec ID/Info                            : Picture based subtitle format used on BDs/HD-DVDs
  323. Duration                                 : 2 h 27 min
  324. Bit rate                                 : 39.1 kb/s
  325. Count of elements                        : 3664
  326. Stream size                              : 41.2 MiB (0%)
  327. Title                                    : Spanish-PGS
  328. Language                                 : Spanish
  329. Default                                  : No
  330. Forced                                   : No

  331. Text #18
  332. ID                                       : 22
  333. Format                                   : PGS
  334. Muxing mode                              : zlib
  335. Codec ID                                 : S_HDMV/PGS
  336. Codec ID/Info                            : Picture based subtitle format used on BDs/HD-DVDs
  337. Duration                                 : 2 h 27 min
  338. Bit rate                                 : 39.6 kb/s
  339. Count of elements                        : 3658
  340. Stream size                              : 41.7 MiB (0%)
  341. Title                                    : French-PGS
  342. Language                                 : French
  343. Default                                  : No
  344. Forced                                   : No

  345. Text #19
  346. ID                                       : 23
  347. Format                                   : PGS
  348. Muxing mode                              : zlib
  349. Codec ID                                 : S_HDMV/PGS
  350. Codec ID/Info                            : Picture based subtitle format used on BDs/HD-DVDs
  351. Duration                                 : 2 h 27 min
  352. Bit rate                                 : 39.6 kb/s
  353. Count of elements                        : 3664
  354. Stream size                              : 41.7 MiB (0%)
  355. Title                                    : French-PGS
  356. Language                                 : French
  357. Default                                  : No
  358. Forced                                   : No

  359. Text #20
  360. ID                                       : 24
  361. Format                                   : PGS
  362. Muxing mode                              : zlib
  363. Codec ID                                 : S_HDMV/PGS
  364. Codec ID/Info                            : Picture based subtitle format used on BDs/HD-DVDs
  365. Duration                                 : 2 h 27 min
  366. Bit rate                                 : 38.0 kb/s
  367. Count of elements                        : 3664
  368. Stream size                              : 40.1 MiB (0%)
  369. Title                                    : Portuguese-PGS
  370. Language                                 : Portuguese
  371. Default                                  : No
  372. Forced                                   : No

  373. Menu
  374. 00:00:00.000                             : :Chapter 1
  375. 00:10:37.011                             : :Chapter 2
  376. 00:17:11.405                             : :Chapter 3
  377. 00:26:57.240                             : :Chapter 4
  378. 00:35:56.654                             : :Chapter 5
  379. 00:49:18.413                             : :Chapter 6
  380. 01:00:00.805                             : :Chapter 7
  381. 01:10:23.719                             : :Chapter 8
  382. 01:17:07.289                             : :Chapter 9
  383. 01:28:28.469                             : :Chapter 10
  384. 01:39:09.652                             : :Chapter 11
  385. 01:46:26.546                             : :Chapter 12
  386. 01:55:45.563                             : :Chapter 13
  387. 02:03:10.591                             : :Chapter 14
  388. 02:14:00.907                             : :Chapter 15
  389. 02:19:48.088                             : :Chapter 16
復制代碼

復制代碼






本帖隱藏的下載地址需要VIP會員才可瀏覽,您需要升級才可瀏覽,點擊這里升級VIP

分享到:  QQ好友和群QQ好友和群
收藏收藏
回復

使用道具 舉報

級別:普通觀眾 Lv.2

注冊時間
2018-10-2
最后登錄
2019-11-23
聽眾
12
收聽
0
主題
0
藍光幣
94 枚
貢獻
0 點
QQ
沙發
發表于 2018-11-27 09:43:36 | 只看該作者
辛苦樓主了
回復

使用道具 舉報

級別:領銜主演 Lv.6

注冊時間
2018-2-26
最后登錄
2020-2-24
聽眾
16
收聽
0
主題
0
藍光幣
230 枚
貢獻
0 點
板凳
發表于 2018-11-27 15:24:08 | 只看該作者
Thx for sharing
回復

使用道具 舉報

級別:普通觀眾 Lv.2

注冊時間
2018-11-5
最后登錄
2020-2-3
聽眾
11
收聽
0
主題
0
藍光幣
109 枚
貢獻
0 點
QQ
地板
發表于 2018-11-27 17:45:41 | 只看該作者
謝謝分享 幫頂
回復

使用道具 舉報

 成長值: 5980

級別:尊貴的會員

注冊時間
2018-11-4
最后登錄
2020-2-24
聽眾
17
收聽
0
主題
0
藍光幣
1451 枚
貢獻
0 點
QQ
5#
發表于 2018-11-28 00:26:13 | 只看該作者
好東西,謝謝樓主分享
回復

使用道具 舉報

級別:初級觀眾 Lv.1

注冊時間
2018-11-14
最后登錄
2020-2-16
聽眾
9
收聽
0
主題
0
藍光幣
8 枚
貢獻
0 點
6#
發表于 2018-11-28 15:28:02 | 只看該作者
謝謝,辛苦了樓主
回復

使用道具 舉報

級別:初級觀眾 Lv.1

注冊時間
2018-6-27
最后登錄
2018-11-29
聽眾
8
收聽
0
主題
0
藍光幣
9 枚
貢獻
0 點
QQ
7#
發表于 2018-11-29 10:09:23 | 只看該作者

樓主太厲害了!樓主,電影應該很好看我覺得中國高清電影網真是個好地方!
回復

使用道具 舉報

級別:初級觀眾 Lv.1

注冊時間
2018-11-20
最后登錄
2019-10-14
聽眾
8
收聽
0
主題
0
藍光幣
23 枚
貢獻
0 點
8#
發表于 2018-11-29 21:12:01 | 只看該作者
好片子,電影院看的,值回票價
回復

使用道具 舉報

級別:榮升主角 Lv.5

注冊時間
2018-10-31
最后登錄
2020-2-24
聽眾
15
收聽
0
主題
0
藍光幣
1972 枚
貢獻
0 點
QQ
9#
發表于 2018-11-29 22:58:57 | 只看該作者
樓主發貼辛苦了,謝謝樓主分享!
回復

使用道具 舉報

級別:初級觀眾 Lv.1

注冊時間
2018-11-29
最后登錄
2018-12-31
聽眾
8
收聽
0
主題
0
藍光幣
0 枚
貢獻
0 點
10#
發表于 2018-11-29 22:59:06 | 只看該作者

好東西,謝謝樓主分享
回復

使用道具 舉報

懶得打字嘛,點擊右側快捷回復 【右側內容,后臺自定義】
您需要登錄后才可以回帖 登錄 | 立即注冊

本版積分規則

Archiver|手機版|小黑屋| 中國高清網 |網站地圖

GMT+8, 2020-2-24 16:15 , Processed in 0.194475 second(s), 44 queries .

Powered by HDchina X3.4

Copyright 2017-2019©HDchina.All right reserved

返回頂部 聯系我們
足球竞彩网